Brian Scott Carleton | download free torrent Nier Automata PC | Estoy vivoJuuni Taisen Subtitle Indonesia | Documentary | Browsers

Aiyaary 2018 Hindi HDTVRip 720p x264 AAC { TaRa }.mkv

  • Category Movies
  • Type Bollywood
  • Language Hindi
  • Total size 1.4 GB
  • Uploaded By SkTara
  • Downloads 35295
  • Last checked 3 months ago
  • Date uploaded 3 months ago
  • Seeders 437
  • Leechers 175

Aiyaary

ActionCrimeDrama

Aiyaari is an 2018 Indian Hindi-language Action, Crime and Drama movie written and directed by Neeraj Pandey. It is based on true events of The Adarsh Society Scam, a real life story set on the backgrounds of Indian Army. Two officers (Colonel Abhay Singh and Major Jai Bakshi) with patriotic hearts suddenly have a fallout. The film revolves around their relationship of Mentor and Protege and how one of India’s ex-army officers tried to oust one of the country’s best kept secrets. The mentor, Colonel Abhay Singh has complete faith in the country's system while protege Major Jai Bakshi thinks differently due to a recent stint in surveillance.

Infohash : 11F1D3914776C08D62B163A74935925DEBE59718


Aiyaary 2018 Hindi HDTVRip 720p x264 AAC { TaRa }.mkv


===================================================================
General
Complete name : Aiyaary 2018 Hindi HDTVRip 720p x264 AAC { TaRa }.mkv
Format : Matroska
Format version : Version 4 / Version 2
File size : 1.35 GiB
Duration : 2 h 32 min
Overall bit rate : 1 272 kb/s
===================================================================
Video
ID : 1
Format : AVC
Format/Info : Advanced Video Codec
Format profile : [email protected]
Format settings : CABAC / 4 Ref Frames
Format settings, CABAC : Yes
Format settings, ReFrames : 4 frames
Codec ID : V_MPEG4/ISO/AVC
Duration : 2 h 32 min
Bit rate : 1 155 kb/s
Width : 1 280 pixels
Height : 544 pixels
Display aspect ratio : 2.35:1
Frame rate mode : Constant
Frame rate : 25.000 FPS
Color space : YUV
Chroma subsampling : 4:2:0
Bit depth : 8 bits
Scan type : Progressive
Bits/(Pixel*Frame) : 0.066
Stream size : 1.21 GiB (90%)
Title : .....::::: TaRa :::::.....
Language : Hindi
Default : Yes
Forced : No
===================================================================
Audio
ID : 2
Format : AAC
Format/Info : Advanced Audio Codec
Format profile : LC
Codec ID : A_AAC-2
Duration : 2 h 32 min
Bit rate : 128 kb/s
Channel(s) : 2 channels
Channel positions : Front: L R
Sampling rate : 44.1 kHz
Frame rate : 43.066 FPS (1024 SPF)
Compression mode : Lossy
Stream size : 139 MiB (10%)
Title : .....::::: TaRa :::::.....
Language : Hindi
Default : Yes
Forced : No
===================================================================

































Files:

Aiyaary 2018 Hindi HDTVRip 720p x264 AAC { TaRa }.mkv
  • www.hdsector.to.txt (0.6 KB)
  • www.hdsector.to.nfo (6.5 KB)
  • Aiyaary-Bollywood-Movie.jpg (93.7 KB)
  • 5885c0d597a141dd42af5517d3aaf521.jpg (217.5 KB)
  • Aiyaary 2018 Hindi HDTVRip 720p x264 AAC { TaRa }.mkv (1.4 GB)

There are currently no comments. Feel free to leave one :)

Code:

  • udp://tracker.coppersurfer.tk:6969/announce
  • udp://tracker.pirateparty.gr:6969/announce
  • udp://shadowshq.yi.org:6969/announce
  • udp://eddie4.nl:6969/announce
  • udp://tracker.leechers-paradise.org:6969/announce
  • udp://tracker.opentrackr.org:1337/announce
  • udp://p4p.arenabg.ch:1337/announce
  • udp://p4p.arenabg.com:1337/announce
  • udp://9.rarbg.me:2720/announce
  • udp://9.rarbg.to:2780/announce
  • udp://tracker.coppersurfer.tk:80/announce
  • udp://tracker.vanitycore.co:6969/announce
  • udp://public.popcorn-tracker.org:6969/announce
  • udp://tracker.opentrackr.org:1337/announce
  • udp://tracker.zer0day.to:1337/announce