Alex Sebastian | KingKing Launcher 2.0.1 APK | Últimos Homens em Aleppo Assistir Últimos Homens em Aleppo 720p Dublado/Legendado Online Os chamados Capacetes Brancos são soldados voluntários neutros que trabalham em zonas de guerra resgatando e salvando vidas de sobreviventes. Mas a situação em Aleppo, cidade Síria mais afetada pelos ataques do Estado Islâmico, está se tornando insustentável. Acompanhe uma equipe de resgate e entenda como funciona seu trabalho e como eles lidam ...Reklama na forum? | Watch now! | Duolingo: Learn Languages Free APK

[60mbAnime.com] Fairy Tail Movie 2 - Dragon Cry (720p BD)

  • Category Anime
  • Type Dubbed
  • Language English
  • Total size 700.5 MB
  • Uploaded By 60mbAnime
  • Downloads 259
  • Last checked 2 months ago
  • Date uploaded 2 months ago
  • Seeders 2
  • Leechers 1

Infohash : 5AFC84CA332DAD37D4330578030F92237FCF392C

General
Unique ID : 90593735412910803198417166862224842334 (0x4427B80200BE7947500F2DB94031DE5E)
Complete name : [60mbAnime.com] Fairy Tail Movie 2 - Dragon Cry (720p BD).mkv
Format : Matroska
Format version : Version 2
File size : 700 MiB
Duration : 1 h 24 min
Overall bit rate : 1 161 kb/s

Video
ID : 1
Format : HEVC
Format/Info : High Efficiency Video Coding
Format profile : [email protected]@Main
Codec ID : V_MPEGH/ISO/HEVC
Duration : 1 h 24 min
Bit rate : 734 kb/s
Width : 1 280 pixels
Height : 720 pixels
Display aspect ratio : 16:9
Frame rate mode : Constant
Frame rate : 23.976 (24000/1001) FPS
Color space : YUV
Chroma subsampling : 4:2:0
Bit depth : 8 bits
Bits/(Pixel*Frame) : 0.033
Stream size : 443 MiB (63%)
Default : Yes
Forced : No

Audio
ID : 2
Format : AAC
Format/Info : Advanced Audio Codec
Format profile : LC
Codec ID : A_AAC-2
Duration : 1 h 24 min
Bit rate : 420 kb/s
Channel(s) : 6 channels
Channel positions : Front: L C R, Side: L R, LFE
Sampling rate : 48.0 kHz
Frame rate : 46.875 FPS (1024 SPF)
Compression mode : Lossy
Delay relative to video : 9 ms
Stream size : 254 MiB (36%)
Language : English
Default : Yes
Forced : No

Text
ID : 3
Format : ASS
Codec ID : S_TEXT/ASS
Codec ID/Info : Advanced Sub Station Alpha
Duration : 1 h 22 min
Bit rate : 1 076 b/s
Count of elements : 5340
Compression mode : Lossless
Stream size : 649 KiB (0%)
Language : English
Default : Yes
Forced : No

Files:

  • [60mbAnime.com] Fairy Tail Movie 2 - Dragon Cry (720p BD).mkv (700.5 MB)

Comments

Code:

  • http://anidex.moe:6969/announce