Jack and the Beanstalk | Persönlichkeit | Ouija: El Origen del MalAndrew Buchan | Boku no Hero Academia 2nd Season | Top wo Nerae! Gunbuster English Subbed

Raid (2018) Hindi - 1080p - Proper - WEB-HD - x264 - 3.7GB - AAC ...

  • Category Movies
  • Type Bollywood
  • Language Hindi
  • Total size 3.7 GB
  • Uploaded By MovCr
  • Downloads 2456
  • Last checked 2 months ago
  • Date uploaded 2 months ago
  • Seeders 32
  • Leechers 11

Raid

CrimeDramaThriller

Set in the 80s in Uttar Pradesh, India, Raid is based on the true story of one of the most high profile raids the country has ever known. Amay Patnaik (Ajay Devgn), an upright and no-nonsense Income Tax officer has already been transferred 49 times in the past seven years owing to his idealistic and courageous disposition to uncover tax frauds, hitting hard the pockets of many a big shot. When Patnaik is assigned the case of Tauji, a highly influential and feared man in Uttar Pradesh, little does he know that his unerring determination to bring Tauji to justice would culminate in the longest and most challenging raid of his career as also the history of the Income Tax Department of India. Would Amay succeed in the face of an increasingly stubborn and belligerent Tauji forms the crux of the story.

Infohash : 7797324C64212B95DC2D2FA0D675FB03DFC35509

http://movcr.com/

Raid (2018) Hindi - 1080p - Proper - WEB-HD - x264 - 3.7GB - AAC - MovCr - Exclusive


Video
ID                          : 1
Format                      : AVC
Format/Info                 : Advanced Video Codec
Format profile              : [email protected]
Format settings, CABAC      : Yes
Format settings, ReFrames   : 1 frame
Format settings, GOP        : M=1, N=25
Codec ID                    : V_MPEG4/ISO/AVC
Duration                    : 1 h 55 min
Bit rate mode               : Constant
Bit rate                    : 4 500 kb/s
Width                       : 1 920 pixels
Height                      : 1 080 pixels
Display aspect ratio        : 16:9
Frame rate mode             : Constant
Frame rate                  : 25.000 FPS
Color space                 : YUV
Chroma subsampling          : 4:2:0
Bit depth                   : 8 bits
Scan type                   : Progressive
Bits/(Pixel*Frame)          : 0.087
Stream size                 : 3.61 GiB (99%)
Title                       : www.MovCr.com
Default                     : Yes
Forced                      : No

Audio
ID                          : 2
Format                      : AAC
Format/Info                 : Advanced Audio Codec
Format profile              : LC
Codec ID                    : A_AAC
Duration                    : 1 h 55 min
Bit rate                    : 61.4 kb/s
Channel(s)                  : 2 channels
Channel positions           : Front: L R
Sampling rate               : 48.0 kHz
Frame rate                  : 46.875 FPS (1024 spf)
Compression mode            : Lossy
Stream size                 : 50.6 MiB (1%)
Title                       : www.MovCr.com
Default                     : Yes
Forced                      : No





Files:

  • [MovCr.com] - Raid (2018) Hindi - 1080p - Proper -WEB-HD - x264 - 3.7GB - AAC - MovCr.mkv (3.7 GB)

Comments

Code:

  • udp://tracker.coppersurfer.tk:6969/announce
  • udp://tracker.opentrackr.org:1337/announce
  • udp://tracker.leechers-paradise.org:6969/announce
  • udp://9.rarbg.to:2720/announce
  • udp://eddie4.nl:6969/announce
  • udp://9.rarbg.to:2720/announce
  • http://t.nyaatracker.com:80/announce
  • udp://tracker.doko.moe:6969/announce
  • udp://thetracker.org:80/announce
  • udp://bt.xxx-tracker.com:2710/announce
  • udp://tracker.vanitycore.co:6969/announce
  • http://tracker.city9x.com:2710/announce
  • udp://tracker.tiny-vps.com:6969/announce
  • http://retracker.telecom.by:80/announce
  • http://tracker.electro-torrent.pl:80/announce
  • udp://tracker.leechers-paradise.org:6969/announce
  • udp://tracker.opentrackr.org:1337/announce
  • http://open.kickasstracker.com:443/announce
  • udp://tracker.coppersurfer.tk:6969/announce
  • udp://open.stealth.si:80/announce
  • http://retracker.mgts.by:80/announce
  • udp://inferno.demonoid.pw:3418/announce
  • udp://retracker.lanta-net.ru:2710/announce
  • http://fxtt.ru:80/announce
  • udp://peerfect.org:6969/announce
  • udp://tracker.swateam.org.uk:2710/announce