Alan Chun-Kwong Luk | Lauren Terp | Watch movieJob search CV | Simon Lennon | Bloodline saison 3 ├ępisode 4 -V - VF

High Jack 2018 Hindi PRE X264 GOPISAHI

  • Category Movies
  • Type Bollywood
  • Language English
  • Total size 248.3 MB
  • Uploaded By PENDUDESI
  • Downloads 247
  • Last checked 30 minutes ago
  • Date uploaded 18 hours ago
  • Seeders 20
  • Leechers 21

Infohash : 6D835CBA52CDBBC35DAEE269EA0EC1CC90254939

http://www.gopisahi.pw



Format : Matroska
Format version : Version 4 / Version 2
File size : 248 MiB
Duration : 1 h 34 min
Overall bit rate : 366 kb/s
Movie name : GOPISAHI

Video
Format : AVC
Codec ID : V_MPEG4/ISO/AVC
Duration : 1 h 34 min
Bit rate : 300 kb/s
Width : 720 pixels
Height : 320 pixels
Display aspect ratio : 2.25:1
Frame rate mode : Constant
Frame rate : 25.000 FPS
Color space : YUV
Chroma subsampling : 4:2:0
Bit depth : 8 bits
Scan type : Progressive
Bits/(Pixel*Frame) : 0.052
Stream size : 203 MiB (82%)
Title : GOPISAHI
Writing library : x264 core 155 r2893 b00bcaf

Audio
Format : AAC
Duration : 1 h 34 min
Bit rate : 64.2 kb/s
Channel(s) : 2 channels
Channel positions : Front: L R
Sampling rate : 48.0 kHz
Frame rate : 46.875 FPS (1024 SPF)
Compression mode : Lossy
Delay relative to video : -44 ms
Stream size : 43.6 MiB (18%)
Language : Hindi



Files:

  • High Jack 2018 Hindi PRE X264 GOPISAHI.mkv (248.3 MB)

There are currently no comments. Feel free to leave one :)

Code:

  • udp://9.rarbg.com:2740/announce
  • udp://9.rarbg.to:2800/announce
  • udp://inferno.demonoid.pw:3391/announce
  • udp://tracker.leechers-paradise.org:6969/announce
  • udp://tracker.coppersurfer.tk:80/announce
  • udp://tracker.coppersurfer.tk:6969/announce
  • udp://tracker.opentrackr.org:1337/announce
  • udp://p4p.arenabg.com:1337/announce
  • UDP://EDDIE4.NL:6969/ANNOUNCE
  • udp://tracker.pirateparty.gr:6969/announce
  • udp://tracker.tiny-vps.com:6969/announce
  • udp://public.popcorn-tracker.org:6969/announce
  • udp://tracker.torrent.eu.org:451/announce