Blinky Bill | Sin City: A Dame to Kill For | MacGyver 2016 S01E02 WeB-DL-RiP x264 HUN-MGMGry na Konsole | Iron Man - Obrońca dobra / Iron Man | Ishitachi no Renai Jijou

18+ Black Water 2018 Movies 720p BluRay x264 5.1 with Sample ☻rDX...

  • Category Movies
  • Type HD
  • Language English
  • Total size 971.4 MB
  • Uploaded By nehalpuja
  • Downloads 203
  • Last checked 1 hour ago
  • Date uploaded 18 hours ago
  • Seeders 21
  • Leechers 23

Infohash : 5967F07F9441D4E04AE6595BA04CC67799F9DC32

18+ Black Water 2018 Movies 720p BluRay x264 5.1 with Sample ☻rDX☻
===============================================================================================

SCREEN SHOTS:



or

http://iphonehosting.eu/2018/5/a/income/1.html

File size : 962 MiB
Duration : 1 h 44 min
Overall bit rate : 1 284 kb/s
Movie name : 18+ Black Water 2018 Movies 720p BluRay x264 5.1 ☻rDX☻

Video
ID : 2
Format : AVC
Format/Info : Advanced Video Codec
Format profile : [email protected]
Format settings, CABAC : Yes
Format settings, ReFrames : 4 frames
Codec ID : V_MPEG4/ISO/AVC
Duration : 1 h 44 min
Bit rate : 900 kb/s
Width : 1 280 pixels
Height : 536 pixels
Display aspect ratio : 2.40:1
Frame rate mode : Constant
Frame rate : 23.976 (24000/1001) FPS
Color space : YUV
Chroma subsampling : 4:2:0
Bit depth : 8 bits
Scan type : Progressive
Bits/(Pixel*Frame) : 0.055
Stream size : 655 MiB (68%)
Title : ☻rDX☻
Writing library : x264

Audio
ID : 1
Format : AC-3
Format/Info : Audio Coding 3
Mode extension : CM (complete main)
Format settings, Endianness : Big
Codec ID : A_AC3
Duration : 1 h 44 min
Bit rate mode : Constant
Bit rate : 384 kb/s
Channel(s) : 6 channels
Channel positions : Front: L C R, Side: L R, LFE
Sampling rate : 48.0 kHz
Frame rate : 31.250 FPS (1536 spf)
Bit depth : 16 bits
Compression mode : Lossy
Delay relative to video : -21 ms
Stream size : 288 MiB (30%)
Title : ☻rDX☻
Default : Yes
Forced : No



IMDB : http://www.imdb.com/title/tt5622412

Files:

18+ Black Water 2018 Movies 720p BluRay x264 5.1 with Sample ☻rDX☻
  • Sample ~ 18+ Black Water 2018 Movies 720p BluRay x264 5.1 ☻rDX☻.mkv (9.4 MB)
  • 18+ Black Water 2018 Movies 720p BluRay x264 5.1 ☻rDX☻.mkv (962.0 MB)

There are currently no comments. Feel free to leave one :)

Code:

  • udp://tracker.coppersurfer.tk:6969/announce
  • udp://tracker.leechers-paradise.org:6969/announce
  • udp://tracker.pirateparty.gr:6969/announce
  • udp://eddie4.nl:6969/announce
  • udp://tracker.zer0day.to:1337/announce
  • udp://9.rarbg.me:2710/announce
  • udp://9.rarbg.to:2710/announce
  • udp://public.popcorn-tracker.org:6969/announce
  • udp://p4p.arenabg.ch:1337/announce
  • udp://tracker.vanitycore.co:6969/announce
  • udp://ipv4.tracker.harry.lu:80/announce
  • udp://tracker.opentrackr.org:1337/announce
  • udp://p4p.arenabg.com:1337/announce
  • udp://shadowshq.yi.org:6969/announce