The Potter's Studio Clay and Glaze Handbook | Octobre 2014 (1933) | Wedding beauty couple, wedding decor, wedding rings, bride with groomLilin Herlina - SECAWAN MADU - New Pallapa | Eps1 Poldark (2015) - Season 4 | IMDb: 4.0 HD Witness Unprotected

18+ The Tale 2018 Movies 720p HDRip x264 5.1 with Sample ☻rDX☻...

  • Category Movies
  • Type HD
  • Language English
  • Total size 1.1 GB
  • Uploaded By nehalpuja
  • Downloads 53
  • Last checked 50 minutes ago
  • Date uploaded 4 hours ago
  • Seeders 2
  • Leechers 56

Infohash : 03935A7AE2C95C38512DD2127103AE12E0A1D259

18+ The Tale 2018 Movies 720p HDRip x264 5.1 with Sample ☻rDX☻
===============================================================================================

SCREEN SHOTS:



or

http://iphonehosting.eu/2018/5/a/homeloan/1.html

File size : 1.06 GiB
Duration : 1 h 54 min
Overall bit rate : 1 317 kb/s
Movie name : 18+ The Tale 2018 Movies 720p HDRip x264 5.1 ☻rDX☻

Video
ID : 2
Format : AVC
Format/Info : Advanced Video Codec
Format profile : [email protected]
Format settings, CABAC : Yes
Format settings, ReFrames : 4 frames
Codec ID : V_MPEG4/ISO/AVC
Duration : 1 h 54 min
Bit rate : 932 kb/s
Width : 1 280 pixels
Height : 704 pixels
Display aspect ratio : 16:9
Frame rate mode : Constant
Frame rate : 23.976 (24000/1001) FPS
Color space : YUV
Chroma subsampling : 4:2:0
Bit depth : 8 bits
Scan type : Progressive
Bits/(Pixel*Frame) : 0.043
Stream size : 746 MiB (69%)
Title : ☻rDX☻
Writing library : x264

Audio
ID : 1
Format : AC-3
Format/Info : Audio Coding 3
Mode extension : CM (complete main)
Format settings, Endianness : Big
Codec ID : A_AC3
Duration : 1 h 54 min
Bit rate mode : Constant
Bit rate : 384 kb/s
Channel(s) : 6 channels
Channel positions : Front: L C R, Side: L R, LFE
Sampling rate : 48.0 kHz
Frame rate : 31.250 FPS (1536 spf)
Bit depth : 16 bits
Compression mode : Lossy
Delay relative to video : -21 ms
Stream size : 316 MiB (29%)
Title : ☻rDX☻
Default : Yes
Forced : No



IMDB : http://www.imdb.com/title/tt4015500

Files:

18+ The Tale 2018 Movies 720p HDRip x264 5.1 with Sample ☻rDX☻
  • Sample ~ 18+ The Tale 2018 Movies 720p HDRip x264 5.1 ☻rDX☻.mkv (8.1 MB)
  • 18+ The Tale 2018 Movies 720p HDRip x264 5.1 ☻rDX☻.mkv (1.1 GB)

There are currently no comments. Feel free to leave one :)

Code:

  • udp://tracker.coppersurfer.tk:6969/announce
  • udp://tracker.leechers-paradise.org:6969/announce
  • udp://tracker.pirateparty.gr:6969/announce
  • udp://eddie4.nl:6969/announce
  • udp://tracker.zer0day.to:1337/announce
  • udp://9.rarbg.me:2710/announce
  • udp://9.rarbg.to:2710/announce
  • udp://public.popcorn-tracker.org:6969/announce
  • udp://p4p.arenabg.ch:1337/announce
  • udp://tracker.vanitycore.co:6969/announce
  • udp://ipv4.tracker.harry.lu:80/announce
  • udp://tracker.opentrackr.org:1337/announce
  • udp://p4p.arenabg.com:1337/announce
  • udp://shadowshq.yi.org:6969/announce