Read More ... | 3x11 season x episode Full Frontal with Samantha Bee | Güzel ve Çirkin – Beauty and the Beast 2017 Türkçe Dublaj izleCSR Racing 2 | Die Abenteuer des jungen Indiana Jones | CarGo 2017 Türkçe Dublaj izle

Another Soul 2018 720p HDRip x264 AAC 600MB.MovCr

  • Category Movies
  • Type HD
  • Language English
  • Total size 602.3 MB
  • Uploaded By ictv
  • Downloads 49
  • Last checked 2 months ago
  • Date uploaded 2 months ago
  • Seeders 3
  • Leechers 1

Another Soul

Horror

A couple on the run battle to save their daughter from possession by a demon.

Infohash : 721B12736713E92182288423B0E3BEFE7CDA078D



http://www.imdb.com/title/tt5165620/



General
Unique ID : 30536423770410083592991211964117044365 (0x16F919EE5D22A5DB13099F4749704C8D)
Complete name : www.MovCr.com-Another Soul 2018 720p HDRip x264 AAC 600MB.MovCr.mkv
Format : Matroska
Format version : Version 4 / Version 2
File size : 602 MiB
Duration : 1 h 17 min
Overall bit rate : 1 089 kb/s
Movie name : www.MovCr.com
Encoded date : UTC 2018-05-28 06:14:10
Writing application : mkvmerge v23.0.0 ('The Bride Said No') 64-bit
Writing library : libebml v1.3.6 + libmatroska v1.4.9

Video
ID : 2
Format : AVC
Format/Info : Advanced Video Codec
Format profile : [email protected]
Format settings, CABAC : Yes
Format settings, ReFrames : 5 frames
Codec ID : V_MPEG4/ISO/AVC
Duration : 1 h 17 min
Bit rate : 1 024 kb/s
Width : 1 280 pixels
Height : 720 pixels
Display aspect ratio : 16:9
Frame rate mode : Constant
Frame rate : 23.976 (24000/1001) FPS
Color space : YUV
Chroma subsampling : 4:2:0
Bit depth : 8 bits
Scan type : Progressive
Bits/(Pixel*Frame) : 0.046
Stream size : 566 MiB (94%)
Title : www.MovCr.com
Writing library : x264 core 155 r2893 b00bcaf
Encoding settings : cabac=1 / ref=5 / deblock=1:0:0 / analyse=0x3:0x113 / me=hex / subme=8 / psy=1 / psy_rd=1.00:0.00 / mixed_ref=1 / me_range=16 / chroma_me=1 / trellis=2 / 8x8dct=1 / cqm=0 / deadzone=21,11 / fast_pskip=1 / chroma_qp_offset=-2 / threads=22 / lookahead_threads=3 / sliced_threads=0 / nr=0 / decimate=1 / interlaced=0 / bluray_compat=0 / constrained_intra=0 / bframes=3 / b_pyramid=2 / b_adapt=1 / b_bias=0 / direct=3 / weightb=1 / open_gop=0 / weightp=2 / keyint=240 / keyint_min=24 / scenecut=40 / intra_refresh=0 / rc_lookahead=50 / rc=2pass / mbtree=1 / bitrate=1024 / ratetol=1.0 / qcomp=0.60 / qpmin=0 / qpmax=69 / qpstep=4 / cplxblur=20.0 / qblur=0.5 / vbv_maxrate=62500 / vbv_bufsize=78125 / nal_hrd=none / filler=0 / ip_ratio=1.40 / aq=1:1.00
Default : Yes
Forced : No
Color range : Limited
Color primaries : BT.709
Transfer characteristics : BT.709
Matrix coefficients : BT.709

Audio
ID : 1
Format : AAC
Format/Info : Advanced Audio Codec
Format profile : HE-AAC / LC
Codec ID : A_AAC
Duration : 1 h 17 min
Bit rate : 64.0 kb/s
Channel(s) : 2 channels
Channel positions : Front: L R
Sampling rate : 48.0 kHz / 24.0 kHz
Frame rate : 23.438 FPS (1024 spf)
Compression mode : Lossy
Delay relative to video : 31 ms
Stream size : 35.4 MiB (6%)
Title : www.MovCr.com
Language : English
Default : Yes
Forced : No

Text
ID : 3
Format : UTF-8
Codec ID : S_TEXT/UTF8
Codec ID/Info : UTF-8 Plain Text
Duration : 1 h 14 min
Bit rate : 26 b/s
Count of elements : 644
Stream size : 14.1 KiB (0%)
Title : www.MovCr.com
Language : English
Default : Yes
Forced : No

Menu
00:00:00.000 : :1
00:06:04.030 : :2
00:13:36.065 : :3
00:19:28.000 : :4
00:26:30.005 : :5
00:35:24.039 : :6
00:40:35.058 : :7
00:48:05.049 : :8
00:54:36.064 : :9
01:02:05.013 : :10
01:08:43.077 : :11
01:15:36.073 : :12








Files:

  • www.MovCr.com-Another Soul 2018 720p HDRip x264 AAC 600MB.MovCr.mkv (602.3 MB)

There are currently no comments. Feel free to leave one :)

Code:

  • udp://tracker.openbittorrent.com:80/announce
  • udp://tracker.publicbt.com:80/announce
  • udp://tracker.torrent.eu.org:451/announce
  • http://t.nyaatracker.com:80/announce
  • udp://tracker.doko.moe:6969/announce
  • http://asnet.pw:2710/announce
  • udp://thetracker.org:80/announce
  • http://tracker.tfile.co:80/announce
  • http://pt.lax.mx:80/announce
  • udp://santost12.xyz:6969/announce
  • http://tracker.bt-hash.com:443/announce
  • udp://bt.xxx-tracker.com:2710/announce
  • udp://tracker.vanitycore.co:6969/announce
  • udp://zephir.monocul.us:6969/announce
  • http://grifon.info:80/announce
  • http://retracker.spark-rostov.ru:80/announce
  • http://tr.kxmp.cf:80/announce
  • http://tracker.city9x.com:2710/announce
  • udp://bt.aoeex.com:8000/announce
  • http://tracker.tfile.me:80/announce
  • udp://tracker.tiny-vps.com:6969/announce
  • http://retracker.telecom.by:80/announce
  • http://tracker.electro-torrent.pl:80/announce
  • udp://tracker.tvunderground.org.ru:3218/announce
  • udp://tracker.halfchub.club:6969/announce
  • udp://retracker.nts.su:2710/announce
  • udp://wambo.club:1337/announce
  • udp://tracker.dutchtracking.com:6969/announce
  • udp://tc.animereactor.ru:8082/announce
  • udp://tracker.justseed.it:1337/announce
  • udp://tracker.leechers-paradise.org:6969/announce
  • udp://tracker.opentrackr.org:1337/announce
  • http://open.kickasstracker.com:443/announce
  • udp://tracker.coppersurfer.tk:6969/announce
  • udp://open.stealth.si:80/announce
  • http://retracker.mgts.by:80/announce
  • http://retracker.bashtel.ru:80/announce
  • udp://inferno.demonoid.pw:3418/announce
  • udp://tracker.cypherpunks.ru:6969/announce
  • udp://tracker.cyberia.is:6969/announce
  • http://tracker.devil-torrents.pl:80/announce
  • udp://tracker2.christianbro.pw:6969/announce
  • udp://retracker.lanta-net.ru:2710/announce
  • udp://tracker.internetwarriors.net:1337/announce
  • udp://ulfbrueggemann.no-ip.org:6969/announce
  • http://torrentsmd.eu:8080/announce
  • udp://peerfect.org:6969/announce
  • udp://tracker.swateam.org.uk:2710/announce
  • http://ns349743.ip-91-121-106.eu:80/announce
  • http://torrentsmd.me:8080/announce
  • http://agusiq-torrents.pl:6969/announce
  • http://fxtt.ru:80/announce
  • udp://tracker.vanitycore.co:6969/announce
  • udp://explodie.org:6969