OpenLoadHD | 6.8 01 h 39 minStoker | The Good DoctorBattlestar Galactica Deadlock (Slitherine Ltd.) (RUS/ENG/MULTi5) (v.1.20) [L] [Steam-Rip] Подробнее... Залито: 22-12-2017 01:27 (1996 просмотров) Battlestar Galactica Deadlock (Slitherine Ltd.) (RUS/ENG/MULTi5) (v.1.20) [L] [Steam-Rip] Стратегии В игре Battlestar Galactica Deadlock™ вы возьмете на себя командование Колониальным флотом и защиту Двенадцати колоний во время Первой сайлонской войны. В этой трехмерной тактической игре в вашем распоряжении окажутся самые разные типы кораблей.... Раздают: 2 Качают: 0 Размер: 7.45GB | What TV show are you watching right now? V5 | Dark Angel, Vol. 1 by Kia Asamiya EPUB version

Sanju (2018) Hindi PDVDRip x264 AAC 850MB [CraZzyBoY]

  • Category Movies
  • Type Bollywood
  • Language English
  • Total size 797.9 MB
  • Uploaded By CrazzyBoy
  • Downloads 12432
  • Last checked 59 minutes ago
  • Date uploaded 22 hours ago
  • Seeders 508
  • Leechers 457

Infohash : 9644AC0E374D417D873D420D9E7B3CBE21E15BD2

Quote:


Sanju (2018) Hindi PDVDRip x264 AAC 850MB [CraZzyBoY]

Seed Will Be Slow Visit Our Site For Instant Download
Visit & Support www.MoviezAddiction.website





Sanju (2018) Hindi PDVDRip x264 AAC 850MB [CraZzyBoY]




Take It Or Leave It
Like Our Work Just leave Only 1 Valuable Comment
Keep Visit and Support http://moviezaddiction.website


General
Unique ID : 176075476451527340672043292795621534693 (0x8476E73BDA3495D88F6B5FECB25AEBE5)
Complete name : E:\Torrents\Sanju (2018) Hindi PDVDRip x264 AAC 850MB [www.MoviezAddiction.website].mkv
Format : Matroska
Format version : Version 4 / Version 2
File size : 798 MiB
Duration : 2 h 28 min
Overall bit rate : 750 kb/s
Movie name : ::::www.MoviezAddiction.website::::::
Encoded date : UTC 2018-06-29 12:55:34
Writing application : mkvmerge v12.0.0 ('Trust / Lust') 64bit
Writing library : libebml v1.3.4 + libmatroska v1.4.5

Video
ID : 1
Format : AVC
Format/Info : Advanced Video Codec
Format profile : [email protected]
Format settings : CABAC / 4 Ref Frames
Format settings, CABAC : Yes
Format settings, ReFrames : 4 frames
Codec ID : V_MPEG4/ISO/AVC
Duration : 2 h 28 min
Bit rate : 619 kb/s
Width : 720 pixels
Height : 304 pixels
Display aspect ratio : 2.35:1
Frame rate mode : Constant
Frame rate : 25.000 FPS
Color space : YUV
Chroma subsampling : 4:2:0
Bit depth : 8 bits
Scan type : Progressive
Bits/(Pixel*Frame) : 0.113
Stream size : 659 MiB (83%)
Title : ::::www.MoviezAddiction.website::::::
Writing library : x264 core 148 r2708 86b7198
Encoding settings : cabac=1 / ref=1 / deblock=1:0:0 / analyse=0x1:0x111 / me=hex / subme=2 / psy=1 / psy_rd=1.00:0.00 / mixed_ref=0 / me_range=16 / chroma_me=1 / trellis=0 / 8x8dct=0 / cqm=0 / deadzone=21,11 / fast_pskip=1 / chroma_qp_offset=0 / threads=9 / lookahead_threads=2 / sliced_threads=0 / nr=0 / decimate=1 / interlaced=0 / bluray_compat=0 / constrained_intra=0 / bframes=3 / b_pyramid=2 / b_adapt=1 / b_bias=0 / direct=1 / weightb=1 / open_gop=0 / weightp=1 / keyint=250 / keyint_min=25 / scenecut=40 / intra_refresh=0 / rc_lookahead=10 / rc=abr / mbtree=1 / bitrate=619 / ratetol=1.0 / qcomp=0.60 / qpmin=0 / qpmax=69 / qpstep=4 / vbv_maxrate=20000 / vbv_bufsize=25000 / nal_hrd=none / filler=0 / ip_ratio=1.40 / aq=1:1.00
Default : Yes
Forced : No
Color range : Limited
Color primaries : BT.601 PAL
Transfer characteristics : BT.709
Matrix coefficients : BT.601

Audio
ID : 2
Format : AAC
Format/Info : Advanced Audio Codec
Format profile : LC
Codec ID : A_AAC-2
Duration : 2 h 28 min
Bit rate : 128 kb/s
Channel(s) : 2 channels
Channel positions : Front: L R
Sampling rate : 44.1 kHz
Frame rate : 43.066 FPS (1024 SPF)
Compression mode : Lossy
Delay relative to video : -80 ms
Stream size : 136 MiB (17%)
Title : ::::www.MoviezAddiction.website::::::
Language : Northern Sami
Default : Yes
Forced : No


Few lives in our times are as dramatic and enigmatic as the saga of Sanjay Dutt. Coming from a family of cinema legends, he himself became a film star, and then saw dizzying heights and darkest depths: adulation of die-hard fans, unending battles with various addictions, brushes with the underworld, prison terms, loss of loved ones, and the haunting speculation that he might or might not be a terrorist. Sanju is in turns a hilarious and heartbreaking exploration of one man's battle against his own wild self and the formidable external forces trying to crush him. It depicts the journey of a man through everything that life can throw at him. Some true stories leave you thinking "did this really happen?" This is one such unbelievable story that happens to be true.











Files:

  • Sanju (2018) Hindi PDVDRip x264 AAC 850MB [www.MoviezAddiction.website].mkv (797.9 MB)

There are currently no comments. Feel free to leave one :)

Code:

  • udp://tracker.coppersurfer.tk:6969/announce
  • udp://tracker.pirateparty.gr:6969/announce
  • udp://shadowshq.yi.org:6969/announce
  • udp://eddie4.nl:6969/announce
  • udp://tracker.leechers-paradise.org:6969/announce
  • udp://tracker.opentrackr.org:1337/announce
  • udp://p4p.arenabg.ch:1337/announce
  • udp://p4p.arenabg.com:1337/announce
  • udp://9.rarbg.me:2710/announce
  • udp://9.rarbg.to:2710/announce
  • udp://tracker.coppersurfer.tk:80/announce
  • udp://tracker.vanitycore.co:6969/announce
  • udp://public.popcorn-tracker.org:6969/announce
  • udp://tracker.opentrackr.org:1337/announce
  • udp://tracker.zer0day.to:1337/announce
  • udp://tracker.leechers-paradise.org:6969/announce
  • udp://coppersurfer.tk:6969/announce
  • http://tracker.opentrackr.org/announce
  • udp://9.rarbg.to:2710/announce
  • udp://9.rarbg.to:2770/announce
  • udp://eddie4.nl:6969/announce
  • udp://explodie.org:6969/announce
  • udp://ipv4.tracker.harry.lu:80/announce
  • udp://mgtracker.org:6969/announce
  • udp://open.stealth.si:80/announce
  • udp://p4p.arenabg.ch:1337/announce
  • udp://p4p.arenabg.com:1337/announce
  • udp://public.popcorn-tracker.org:6969/announce
  • udp://shadowshq.yi.org:6969/announce
  • udp://tracker.coppersurfer.tk:6969/announce
  • udp://tracker.coppersurfer.tk:80/announce
  • udp://tracker.zer0day.to:1337/announce
  • udp://tracker.leechers-paradise.org:6969/announce
  • udp://coppersurfer.tk:6969/announce