Spirit Pact Saison 2 | Amanda Brugel | Francis R. Mahony IIInovember | Microsoft Office 2010 Professional Plus x32 | Saikano อาวุธสุดท้ายคือเธอ ตอนที่ 1 - 13 พากย์ไทย

The Crescent 2018 Movies DVDRip x264 AAC with Sample ☻rDX☻

  • Category Movies
  • Type DVD
  • Language English
  • Total size 705.7 MB
  • Uploaded By nehalpuja
  • Downloads 142
  • Last checked 17 minutes ago
  • Date uploaded 10 hours ago
  • Seeders 0
  • Leechers 159

Crescent City Chronicles: Chains in...

Mystery

Welcome to the city of gods and monsters. Crescent City is a melting pot for both. Dealing with both human cases and special cases Detective Joseph Chapel along with his partner Detective Severina Sinclair, his god daughter Kayla Perkins and the police force of C.C.P.D. do there best to clean up the city of natural and supernatural things. Chains in the Attic is the first film in a 4 part film series. A series of murders is happening in Crescent City. It's up to Detective Joseph Chapel and the officers of Crescent City P.D. to solve these mysterious murders while various things are set in motion for the future of Crescent City. Written and Directed by Kelly D. Weaver. Produced by Terminal 52 Films.

Infohash : C30D70E5F110EACCF017391D89C9454E2EF73F2A

The Crescent 2018 Movies DVDRip x264 AAC with Sample ☻rDX☻
===============================================================================================

SCREEN SHOTS:



or

http://iphonehosting.eu/2018/7/buck/1.html

File size : 693 MiB
Duration : 1 h 36 min
Overall bit rate : 1 000 kb/s
Movie name : The Crescent 2018 Movies DVDRip x264 AAC ☻rDX☻

Video
ID : 2
Format : MPEG-4 Visual
Format profile : Advanced [email protected]
Format settings, BVOP : 2
Format settings, QPel : No
Format settings, GMC : No warppoints
Format settings, Matrix : Default (H.263)
Muxing mode : Packed bitstream
Codec ID : V_MS/VFW/FOURCC / XVID
Codec ID/Hint : XviD
Duration : 1 h 36 min
Bit rate : 852 kb/s
Width : 640 pixels
Height : 352 pixels
Display aspect ratio : 16:9
Frame rate mode : Constant
Frame rate : 23.976 (24000/1001) FPS
Color space : YUV
Chroma subsampling : 4:2:0
Bit depth : 8 bits
Scan type : Progressive
Compression mode : Lossy
Bits/(Pixel*Frame) : 0.158
Stream size : 591 MiB (85%)
Title : ☻rDX☻
Writing library : XviD 65
Default : Yes
Forced : No

Audio
ID : 1
Format : MPEG Audio
Format version : Version 1
Format profile : Layer 3
Mode : Joint stereo
Codec ID : A_MPEG/L3
Codec ID/Hint : MP3
Duration : 1 h 36 min
Bit rate mode : Constant
Bit rate : 128 kb/s
Channel(s) : 2 channels
Sampling rate : 48.0 kHz
Compression mode : Lossy
Stream size : 88.7 MiB (13%)
Title : ☻rDX☻
Writing library : LAME3.99r
Default : Yes
Forced : No



IMDB : http://www.imdb.com/title/tt6044156

Files:

The Crescent 2018 Movies DVDRip x264 AAC with Sample ☻rDX☻
  • Sample ~ The Crescent 2018 Movies DVDRip x264 AAC ☻rDX☻.mkv (12.3 MB)
  • The Crescent 2018 Movies DVDRip x264 AAC ☻rDX☻.mkv (693.4 MB)

There are currently no comments. Feel free to leave one :)

Code:

  • udp://tracker.coppersurfer.tk:6969/announce
  • udp://tracker.leechers-paradise.org:6969/announce
  • udp://tracker.pirateparty.gr:6969/announce
  • udp://eddie4.nl:6969/announce
  • udp://tracker.zer0day.to:1337/announce
  • udp://9.rarbg.me:2710/announce
  • udp://9.rarbg.to:2710/announce
  • udp://public.popcorn-tracker.org:6969/announce
  • udp://p4p.arenabg.ch:1337/announce
  • udp://tracker.vanitycore.co:6969/announce
  • udp://ipv4.tracker.harry.lu:80/announce
  • udp://tracker.opentrackr.org:1337/announce
  • udp://p4p.arenabg.com:1337/announce
  • udp://shadowshq.yi.org:6969/announce