Gold (2018) Hindi HQ pDVDRip x264 AAC 700 MB | Place Publique FRENCH DVDRIP 2018 | Investing in Stocks Avoid Stock Market LossComments: 0 | Watch Episode | Family Guy S14E18 PROPER HDTV x264-BATV[ettv]

Angrezi Mein Kehte Hain (2018) HDRip x264 AAC by Full4movies

  • Category Movies
  • Type HD
  • Language English
  • Total size 448.8 MB
  • Uploaded By shmasti
  • Downloads 365
  • Last checked 1 month ago
  • Date uploaded 1 month ago
  • Seeders 5
  • Leechers 2

Infohash : 764CC1B7E1AD1BA4CACC1A7C0A07B9D91A25FEAB



General
Complete name : Angrezi Mein Kehte Hain (2018) HDRip x264 AAC by Full4movies.mkv
Format : Matroska
Format version : Version 4 / Version 2
File size : 449 MiB
Duration : 1 h 48 min
Overall bit rate : 580 kb/s
Encoded date : UTC 2018-07-12 08:46:09
Writing application : mkvmerge v8.1.0 ('Psychedelic Postcard') 32bit
Writing library : libebml v1.3.1 + libmatroska v1.4.2

Video
ID : 1
Format : AVC
Format/Info : Advanced Video Codec
Format profile : [email protected]
Format settings, CABAC : Yes
Format settings, RefFrames : 5 frames
Codec ID : V_MPEG4/ISO/AVC
Duration : 1 h 48 min
Bit rate : 512 kb/s
Width : 720 pixels
Height : 304 pixels
Display aspect ratio : 2.35:1
Frame rate mode : Constant
Frame rate : 23.976 (23976/1000) FPS
Color space : YUV
Chroma subsampling : 4:2:0
Bit depth : 8 bits
Scan type : Progressive
Bits/(Pixel*Frame) : 0.098
Stream size : 397 MiB (89%)
Writing library : x264 core 148 r2643 5c65704
Default : Yes
Forced : No

Audio
ID : 2
Format : AAC
Format/Info : Advanced Audio Codec
Format profile : LC
Codec ID : A_AAC
Duration : 1 h 48 min
Bit rate : 64.2 kb/s
Channel(s) : 2 channels
Channel positions : Front: L R
Sampling rate : 48.0 kHz
Frame rate : 46.875 FPS (1024 SPF)
Compression mode : Lossy
Stream size : 49.7 MiB (11%)
Language : Hindi
Default : Yes
Forced : No

Screen Shooter

Files:

  • Angrezi Mein Kehte Hain (2018) HDRip x264 AAC by Full4movies.mkv (448.8 MB)

There are currently no comments. Feel free to leave one :)

Code:

  • udp://tracker.coppersurfer.tk:6969/announce
  • udp://tracker.opentrackr.org:1337/announce
  • udp://9.rarbg.me:2710/announce
  • udp://tracker.torrent.eu.org:451/announce
  • udp://open.stealth.si:80/announce
  • udp://public.popcorn-tracker.org:6969/announce
  • udp://p4p.arenabg.ch:1337/announce
  • udp://tracker.zer0day.to:1337/announce
  • udp://tracker.pirateparty.gr:6969/announce
  • udp://tracker.leechers-paradise.org:6969/announce
  • udp://tracker.tiny-vps.com:6969/announce
  • udp://bt.firebit.co.uk:6969/announce
  • udp://inferno.demonoid.pw:3397/announce
  • udp://shadowshq.yi.org:6969/announce
  • udp://9.rarbg.to:2780/announce