La Fuerza de Uno | Madam Cutie on Duty | Bienvenue à Monster High: À l'origineRokudenashi Majutsu Koushi to Akashic Records | Hybrid Child | Sezonul 2 Episodul 7

Skyscraper 2018 720p HDCAM x264 AAC [MW]

  • Category Movies
  • Type h.264/x264
  • Language English
  • Total size 800.6 MB
  • Uploaded By moviezworldz
  • Downloads 3276
  • Last checked 4 weeks ago
  • Date uploaded 1 month ago
  • Seeders 141
  • Leechers 13

Skyscraper

ActionThrillerDrama

Framed and on the run, a former FBI agent must save his family from a blazing fire in the world's tallest building.

Infohash : 8EA23087F7C679CDB02B2BAAB4E986C5E24A9AE1





General
Format : Matroska
Format version : Version 4 / Version 2
File size : 801 MiB
Duration : 1 h 24 min
Overall bit rate : 1 332 kb/s

Video
ID : 1
Format : AVC
Format/Info : Advanced Video Codec
Format profile : [email protected]
Format settings : CABAC / 4 Ref Frames
Format settings, CABAC : Yes
Format settings, RefFrames : 4 frames
Codec ID : V_MPEG4/ISO/AVC
Duration : 1 h 24 min
Bit rate : 1 200 kb/s
Width : 1 178 pixels
Height : 532 pixels
Display aspect ratio : 2.2:1
Frame rate mode : Constant
Frame rate : 29.970 (30000/1001) FPS
Color space : YUV
Chroma subsampling : 4:2:0
Bit depth : 8 bits
Scan type : Progressive
Bits/(Pixel*Frame) : 0.064
Stream size : 722 MiB (90%)
Writing library : x264 core 155 r2901 7d0ff22
Default : Yes
Forced : No

Audio
ID : 2
Format : AAC
Format/Info : Advanced Audio Codec
Format profile : LC
Codec ID : A_AAC-2
Duration : 1 h 24 min
Bit rate : 128 kb/s
Channel(s) : 2 channels
Channel positions : Front: L R
Sampling rate : 48.0 kHz
Frame rate : 46.875 FPS (1024 SPF)
Compression mode : Lossy
Stream size : 76.9 MiB (10%)
Default : Yes
Forced : No


Click To Enlarge Image







Files:

Skyscraper 2018 720p HDCAM x264 AAC [MW]
  • Skyscraper 2018 720p HDCAM x264 AAC [MW].mkv (800.6 MB)

Comments

Code:

  • udp://tracker.coppersurfer.tk:6969/announce
  • udp://tracker.pirateparty.gr:6969/announce
  • udp://tracker.coppersurfer.tk:6969/announce
  • udp://tracker.leechers-paradise.org:6969/announce
  • udp://eddie4.nl:6969/announce
  • udp://tracker.tiny-vps.com:6969/announce
  • udp://9.rarbg.me:2800/announce
  • udp://9.rarbg.to:2720/announce
  • udp://public.popcorn-tracker.org:6969/announce
  • udp://open.stealth.si:80/announce
  • udp://tracker.vanitycore.co:6969/announce
  • udp://tracker.opentrackr.org:1337/announce
  • udp://bt.firebit.co.uk:6969/announce
  • udp://shadowshq.yi.org:6969/announce