Comments (1) | Jurassic World: Fallen Kingdom (2018) | Photo Grid - Collage MakerD.N.Angel Sub Indo Batch Eps 1-26 Lengkap | Im Dienste ihrer Majestät – Licensed by Royalty | Cheats [CUSA06381] PS4CHEATER NARUTO SHIPPUDEN™_ Ultimate Ninja® STORM 4 ROAD TO BORUTO

Africa's Great Civilisations.s01e06.Clash of Civilisations (1280x...

  • Category TV
  • Type HD
  • Language English
  • Total size 2.0 GB
  • Uploaded By ElsonRoa
  • Downloads 44
  • Last checked 4 weeks ago
  • Date uploaded 1 month ago
  • Seeders 1
  • Leechers 2

Infohash : CD3E3739D1A53D7CC3ACD695CC29FA911A0E986F

Africa's Great Civilisations.s01e06.Clash of Civilisations (1280x720p HD, 50fps, soft Eng subs)

The award-winning film-maker and academic Henry Louis Gates Jr travels the length and breadth of Africa to explore the continent's epic history.

In the final part of Africa's Great Civilisations, Henry Louis Gates Jr reviews the 19th century, when a fierce competition for resources and trade stimulated ingenuity but also enticed European powers, triggering the 'scramble for Africa' and inciting conflicts that threatened the stability and wellbeing of the continent.

First broadcast: 10 July 2018
Duration: 1 hour



Media info:-
General
Format : MPEG-4
Format profile : Base Media
Codec ID : isom (isom/iso2/avc1/mp41)
File size : 1.96 GiB
Duration : 52mn 26s
Overall bit rate mode : Variable
Overall bit rate : 5 343 Kbps
Writing application : Lavf57.83.100

Video
ID : 1
Format : AVC
Format/Info : Advanced Video Codec
Format profile : [email protected]
Format settings, CABAC : Yes
Format settings, ReFrames : 4 frames
Codec ID : avc1
Codec ID/Info : Advanced Video Coding
Duration : 52mn 26s
Bit rate : 5 018 Kbps
Width : 1 280 pixels
Height : 720 pixels
Display aspect ratio : 16:9
Frame rate mode : Constant
Frame rate : 50.000 fps
Color space : YUV
Chroma subsampling : 4:2:0
Bit depth : 8 bits
Scan type : Progressive
Bits/(Pixel*Frame) : 0.109
Stream size : 1.84 GiB (94%)
Encoded date : UTC 1904-01-01 00:00:00
Tagged date : UTC 1904-01-01 00:00:00
Color range : Limited
Color primaries : BT.709
Transfer characteristics : BT.709
Matrix coefficients : BT.709

Audio
ID : 2
Format : AAC
Format/Info : Advanced Audio Codec
Format profile : LC
Codec ID : 40
Duration : 52mn 25s
Bit rate mode : Variable
Bit rate : 320 Kbps
Channel(s) : 2 channels
Channel positions : Front: L R
Sampling rate : 48.0 KHz
Frame rate : 46.875 fps (1024 spf)
Compression mode : Lossy
Stream size : 119 MiB (6%)
Language : English

Files:

Africa's Great Civilisations.s01e06.Clash of Civilisations
  • .DS_Store (8.0 KB)
  • About this torrent.txt (1.9 KB)
  • Africa's Great Civilisations.s01e06.Clash of Civilisations.jpg (985.8 KB)
  • Africa's Great Civilisations.s01e06.Clash of Civilisations.mp4 (2.0 GB)
  • Africa's Great Civilisations.s01e06.Clash of Civilisations.srt (121.1 KB)
  • If this torrent is dead.txt (0.1 KB)
  • Torrent Downloaded From siteevangelico.net.txt (0.0 KB)
  • Torrent Downloaded From Katcr.co - Kickasstorrents.txt (0.1 KB)
  • Torrent_downloaded_from_Demonoid_-_www.demonoid.pw_.txt (0.1 KB)

There are currently no comments. Feel free to leave one :)

Code:

  • UDP://TRACKER.LEECHERS-PARADISE.ORG:6969/ANNOUNCE
  • UDP://TRACKER.COPPERSURFER.TK:6969/ANNOUNCE
  • UDP://TRACKER.OPENTRACKR.ORG:1337/ANNOUNCE
  • UDP://TRACKER.ZER0DAY.TO:1337/ANNOUNCE
  • UDP://EDDIE4.NL:6969/ANNOUNCE
  • udp://inferno.demonoid.pw:3391/announce