The Phone Call | Photo Sketch | Seven The Days Long Gone v1.2.0 Free DownloadAlle ansehen | Saber Marionette R | Bates Motel

Mission Impossible 6 - Fallout (2018) English 720p HDCAM Rip x264...

  • Category Movies
  • Type h.264/x264
  • Language English
  • Total size 1.3 GB
  • Uploaded By RockerS
  • Downloads 21869
  • Last checked 2 weeks ago
  • Date uploaded 2 weeks ago
  • Seeders 245
  • Leechers 38

Mission: Impossible - Fallout

AdventureActionThriller

When an IMF mission ends badly, the world is faced with dire consequences. As Ethan Hunt takes it upon himself to fulfil his original briefing, the CIA begin to question his loyalty and his motives. The IMF team find themselves in a race against time, hunted by assassins while trying to prevent a global catastrophe.

Infohash : 6052A77EC92E594840D2A1EA68E3131C786DB09A

Mission Impossible 6 - Fallout (2018) English 720p HDCAM Rip x264 1.3GB - Team TR


Source : 1xBet



Media Info
General
Format : Matroska
Format version : Version 4 / Version 2
File size : 1.30 GiB
Duration : 2 h 17 min
Overall bit rate : 1 358 kb/s

Video
ID : 1
Format : AVC
Format/Info : Advanced Video Codec
Format profile : [email protected]
Format settings : CABAC / 4 Ref Frames
Format settings, CABAC : Yes
Format settings, RefFrames : 4 frames
Codec ID : V_MPEG4/ISO/AVC
Duration : 2 h 17 min
Bit rate : 1 200 kb/s
Width : 1 270 pixels
Height : 606 pixels
Display aspect ratio : 2.096
Frame rate mode : Constant
Frame rate : 29.970 (30000/1001) FPS
Color space : YUV
Chroma subsampling : 4:2:0
Bit depth : 8 bits
Scan type : Progressive
Bits/(Pixel*Frame) : 0.052
Stream size : 1.15 GiB (88%)
Writing library : x264 core 155 r2901 7d0ff22
Default : Yes
Forced : No

Audio
ID : 2
Format : AAC
Format/Info : Advanced Audio Codec
Format profile : LC
Codec ID : A_AAC-2
Duration : 2 h 17 min
Bit rate : 161 kb/s
Channel(s) : 2 channels
Channel positions : Front: L R
Sampling rate : 48.0 kHz
Frame rate : 46.875 FPS (1024 SPF)
Compression mode : Lossy
Delay relative to video : -21 ms
Stream size : 158 MiB (12%)
Language : English
Default : Yes
Forced : No


Files:

  • www.TamilRockers.cl - Mission Impossible 6 - Fallout (2018) English 720p TSRip x264 1.3GB.mkv (1.3 GB)

Comments

Code:

  • udp://tracker.openbittorrent.com:80/announce
  • udp://explodie.org:6969/announce
  • udp://zer0day.ch:1337/announce
  • udp://tracker.leechers-paradise.org:6969/announce
  • udp://tracker.coppersurfer.tk:6969/announce
  • udp://tracker.opentrackr.org:1337/announce