GoogleGoogle c'è anche per Windows Phone! | Artikel De Sims 4 detecteert piraterij en maakt spelen onmogelijkLees meer | Day of the D (2018)The Vietnam War | Palco MP3 | Flipagram

Avengers Age of Ultron (2015) 720p - BDRip - x264 - Original Auds...

  • Category Movies
  • Type HD
  • Language English
  • Total size 1.2 GB
  • Uploaded By MovCr
  • Downloads 501
  • Last checked 2 days ago
  • Date uploaded 1 week ago
  • Seeders 10
  • Leechers 2

Avengers: Age of Ultron

ActionAdventureScience Fiction

When Tony Stark tries to jumpstart a dormant peacekeeping program, things go awry and Earth’s Mightiest Heroes are put to the ultimate test as the fate of the planet hangs in the balance. As the villainous Ultron emerges, it is up to The Avengers to stop him from enacting his terrible plans, and soon uneasy alliances and unexpected action pave the way for an epic and unique global adventure.

Infohash : 75E41407CC30E90438AABEBCC39EEB2C465FB9E7

http://movcr.com


Avengers Age of Ultron (2015) 720p - BDRip - x264 - Original Auds [Hindi + Tamil + Telugu + Eng] - 1.2GB - ESub - MovCr


Video
ID : 1
Format : AVC
Format/Info : Advanced Video Codec
Format profile : [email protected]
Format settings : CABAC / 4 Ref Frames
Format settings, CABAC : Yes
Format settings, ReFrames : 4 frames
Codec ID : V_MPEG4/ISO/AVC
Duration : 2 h 21 min
Bit rate : 823 kb/s
Width : 1 280 pixels
Height : 536 pixels
Display aspect ratio : 2.40:1
Frame rate mode : Constant
Frame rate : 23.976 (24000/1001) FPS
Original frame rate : 23.976 (23976/1000) FPS
Color space : YUV
Chroma subsampling : 4:2:0
Bit depth : 8 bits
Scan type : Progressive
Bits/(Pixel*Frame) : 0.050
Stream size : 832 MiB (69%)
Title : www.MovCr.com
Writing library : x264 core 123 r2189 35cf912
Encoding settings : cabac=1 / ref=4 / deblock=1:-1:-1 / analyse=0x3:0x133 / me=umh / subme=9 / psy=1 / psy_rd=1.00:0.15 / mixed_ref=1 / me_range=24 / chroma_me=1 / trellis=2 / 8x8dct=1 / cqm=0 / deadzone=21,11 / fast_pskip=0 / chroma_qp_offset=-3 / threads=48 / sliced_threads=0 / nr=0 / decimate=1 / interlaced=0 / bluray_compat=0 / constrained_intra=0 / bframes=3 / b_pyramid=2 / b_adapt=2 / b_bias=0 / direct=3 / weightb=1 / open_gop=0 / weightp=2 / keyint=250 / keyint_min=23 / scenecut=40 / intra_refresh=0 / rc_lookahead=60 / rc=2pass / mbtree=1 / bitrate=823 / ratetol=1.0 / qcomp=0.60 / qpmin=0 / qpmax=69 / qpstep=4 / cplxblur=20.0 / qblur=0.5 / vbv_maxrate=31250 / vbv_bufsize=31250 / nal_hrd=none / ip_ratio=1.40 / aq=1:1.00
Default : Yes
Forced : No
Color range : Limited
Color primaries : BT.709
Matrix coefficients : BT.709

Audio #1
ID : 2
Format : MPEG Audio
Format version : Version 1
Format profile : Layer 3
Format settings : Joint stereo / MS Stereo
Codec ID : A_MPEG/L3
Codec ID/Hint : MP3
Duration : 2 h 21 min
Bit rate mode : Constant
Bit rate : 96.0 kb/s
Channel(s) : 2 channels
Sampling rate : 44.1 kHz
Frame rate : 38.281 FPS (1152 SPF)
Compression mode : Lossy
Stream size : 96.9 MiB (8%)
Title : www.MovCr.com
Language : Hindi
Default : Yes
Forced : No

Audio #2
ID : 3
Format : MPEG Audio
Format version : Version 1
Format profile : Layer 3
Format settings : Joint stereo
Codec ID : A_MPEG/L3
Codec ID/Hint : MP3
Duration : 2 h 21 min
Bit rate mode : Constant
Bit rate : 96.0 kb/s
Channel(s) : 2 channels
Sampling rate : 44.1 kHz
Frame rate : 38.281 FPS (1152 SPF)
Compression mode : Lossy
Stream size : 96.9 MiB (8%)
Title : www.MovCr.com
Language : Tamil
Default : No
Forced : No

Audio #3
ID : 4
Format : MPEG Audio
Format version : Version 2
Format profile : Layer 3
Format settings : Joint stereo / Intensity Stereo + MS Stereo
Codec ID : A_MPEG/L3
Codec ID/Hint : MP3
Duration : 2 h 21 min
Bit rate mode : Constant
Bit rate : 80.0 kb/s
Channel(s) : 2 channels
Sampling rate : 22.05 kHz
Frame rate : 38.281 FPS (576 SPF)
Compression mode : Lossy
Stream size : 80.8 MiB (7%)
Title : www.MovCr.com
Language : Telugu
Default : No
Forced : No

Audio #4
ID : 5
Format : AAC
Format/Info : Advanced Audio Codec
Format profile : LC
Codec ID : A_AAC-2
Duration : 2 h 21 min
Bit rate : 93.8 kb/s
Channel(s) : 2 channels
Channel positions : Front: L R
Sampling rate : 48.0 kHz
Frame rate : 46.875 FPS (1024 SPF)
Compression mode : Lossy
Stream size : 94.8 MiB (8%)
Title : www.MovCr.com
Language : English
Default : No
Forced : No

Text
ID : 6
Format : UTF-8
Codec ID : S_TEXT/UTF8
Codec ID/Info : UTF-8 Plain Text
Duration : 2 h 12 min
Bit rate : 56 b/s
Count of elements : 1883
Stream size : 55.3 KiB (0%)
Title : www.MovCr.com
Language : English
Default : Yes
Forced : No





Files:

  • [MovCr.com] - Avengers Age of Ultron (2015) 720p - BDRip - x264 - Original Auds [Hindi + Tamil + Telugu + Eng] - 1.2GB - ESub - MovCr.mkv (1.2 GB)

There are currently no comments. Feel free to leave one :)

Code:

  • udp://tracker.openbittorrent.com:80/announce
  • udp://tracker.opentrackr.org:1337/announce
  • udp://tracker.coppersurfer.tk:6969/announce
  • udp://tracker.opentrackr.org:1337/announce
  • udp://tracker.leechers-paradise.org:6969/announce
  • udp://9.rarbg.to:2800/announce
  • udp://eddie4.nl:6969/announce
  • udp://9.rarbg.to:2800/announce
  • udp://tracker.doko.moe:6969/announce
  • udp://thetracker.org:80/announce
  • udp://bt.xxx-tracker.com:2710/announce
  • udp://tracker.vanitycore.co:6969/announce
  • udp://tracker.tiny-vps.com:6969/announce
  • udp://tracker.leechers-paradise.org:6969/announce
  • udp://tracker.opentrackr.org:1337/announce
  • udp://tracker.coppersurfer.tk:6969/announce
  • udp://open.stealth.si:80/announce
  • udp://inferno.demonoid.pw:3418/announce
  • udp://retracker.lanta-net.ru:2710/announce
  • udp://peerfect.org:6969/announce
  • udp://tracker.swateam.org.uk:2710/announce