Satyameva Jayate (2018) Hindi 720p HQ PreDVDRip x264 AAC [HdFree4...

  • Category Movies
  • Type Bollywood
  • Language English
  • Total size 1.0 GB
  • Uploaded By likuaba
  • Downloads 548
  • Last checked 7 minutes ago
  • Date uploaded 2 hours ago
  • Seeders 4
  • Leechers 7

Satyameva Jayate

ActionThriller

DCP Shivansh has been tasked to catch Vir, the man behind police killings in the city. Both are eventually against the same enemy but divided by a fine line, the law.

Infohash : 06E891BC1066C0C96A95F2EFD7BD377F18E4B68B





Code:

General
Format : Matroska
Format version : Version 4 / Version 2
File size : 1 022 MiB
Duration : 2 h 15 min
Overall bit rate : 1 058 kb/s
Movie name : HdFree4U.Bid Satyameva Jayate (2018) Hindi 720p HQ PreDVDRip x264 AAC

Video
ID : 1
Format : AVC
Format/Info : Advanced Video Codec
Format profile : [email protected]
Format settings : CABAC / 2 Ref Frames
Format settings, CABAC : Yes
Format settings, RefFrames : 2 frames
Format settings, GOP : M=1, N=25
Codec ID : V_MPEG4/ISO/AVC
Duration : 2 h 15 min
Bit rate : 860 kb/s
Width : 1 280 pixels
Height : 544 pixels
Display aspect ratio : 2.35:1
Frame rate mode : Constant
Frame rate : 25.000 FPS
Color space : YUV
Chroma subsampling : 4:2:0
Bit depth : 8 bits
Scan type : Progressive
Bits/(Pixel*Frame) : 0.049
Stream size : 831 MiB (81%)
Title : HdFree4U.Bid
Language : Hindi
Default : Yes
Forced : No

Audio
ID : 2
Format : AAC
Format/Info : Advanced Audio Codec
Format profile : LC
Codec ID : A_AAC-2
Duration : 2 h 15 min
Bit rate : 192 kb/s
Channel(s) : 2 channels
Channel positions : Front: L R
Sampling rate : 48.0 kHz
Frame rate : 46.875 FPS (1024 SPF)
Compression mode : Lossy
Stream size : 189 MiB (18%)
Title : HdFree4U.Bid
Language : Hindi
Default : Yes
Forced : No

Text
ID : 3
Format : UTF-8
Codec ID : S_TEXT/UTF8
Codec ID/Info : UTF-8 Plain Text
Duration : 1 h 30 min
Bit rate : 0 b/s
Count of elements : 5
Stream size : 125 Bytes (0%)
Title : HdFree4U.Bid
Language : English
Default : Yes
Forced : No



Click To Full Image










Files:

HdFree4U - Satyameva Jayate (2018) Hindi 720p HQ PreDVDRip x264 AAC
  • 07e3aaf5ea44ebd85fa7eb3e89654b6c7c61914ec9d2532c.png (556.6 KB)
  • 616b5f7bf06ff764e88dd2add2819d38d8e1fbbbde619322.png (306.8 KB)
  • 8d0967d1cbae1e17a09888928fff5030a566eff31e94c1a5.png (571.3 KB)
  • e398236ffeb8d515ac233a62bd368fcc9db2b6c590b75b68.png (412.6 KB)
  • eeea14e55da961218fb6be6c5a5fa3b897a9c2dacb888618.png (522.1 KB)
  • HdFree4U.Bid Satyameva Jayate .mkv (1,022.0 MB)
  • hdfree4u.txt (0.2 KB)
  • Visit Hdfree4u.info.url (0.1 KB)

There are currently no comments. Feel free to leave one :)

Code:

  • UDP://TRACKER.LEECHERS-PARADISE.ORG:6969/ANNOUNCE
SitemapAutres logiciels | La Lego Ninjago ... | Индийское кино Apple Iphone 7 Plus - 128gb - Jet Black (unlocked) A1784 (gsm) | Lissabonner Requiem - Eine Halluzination | HD Ready Player One (2018)