Jurassic World Fallen Kingdom (2018) (1080p BluRay 10bit x265 HEV...

  • Category Movies
  • Type HEVC/x265
  • Language English
  • Total size 1.8 GB
  • Uploaded By UTRCorp
  • Downloads 374
  • Last checked 42 minutes ago
  • Date uploaded 17 hours ago
  • Seeders 33
  • Leechers 47

Jurassic World: Fallen Kingdom

ActionAdventureScience Fiction

A volcanic eruption threatens the remaining dinosaurs on the island of Isla Nublar, where the creatures have freely roamed for several years after the demise of an animal theme park known as Jurassic World. Claire Dearing, the former park manager, has now founded the Dinosaur Protection Group, an organization dedicated to protecting the dinosaurs. To help with her cause, Claire has recruited Owen Grady, a former dinosaur trainer who worked at the park, to prevent the extinction of the dinosaurs once again.

Infohash : 48B029F17E6242C33E06AD827BF4AD5659B7F186








Media Information

Media Information

Code:

General
Format : Matroska
Format version : Version 4 / Version 2
File size : 1.77 GiB
Duration : 2 h 8 min
Overall bit rate : 1 971 kb/s
Movie name : Jurassic World Fallen Kingdom 2018 (1080p x265 q22 S96 Joy)[UTR]
Encoded date : UTC 2018-09-10 18:45:46
Writing application : mkvmerge v25.0.0 ('Prog Noir') 64-bit
Writing library : libebml v1.3.6 + libmatroska v1.4.9
Cover : Yes
Attachments : cover.jpg
Writing frontend : StaxRip v1.8.2.0

Video
ID : 1
Format : HEVC
Format/Info : High Efficiency Video Coding
Format profile : Main [email protected]@Main
Codec ID : V_MPEGH/ISO/HEVC
Duration : 2 h 8 min
Bit rate : 1 596 kb/s
Width : 1 920 pixels
Height : 800 pixels
Display aspect ratio : 2.40:1
Frame rate mode : Constant
Frame rate : 23.976 (24000/1001) FPS
Color space : YUV
Chroma subsampling : 4:2:0
Bit depth : 10 bits
Bits/(Pixel*Frame) : 0.043
Stream size : 1.43 GiB (81%)
Writing library : x265 2.8+19-bcdc610cf5f0:[Windows][MSVC 1914][64 bit] 10bit
Encoding settings : cpuid=1111039 / frame-threads=3 / numa-pools=8 / wpp / no-pmode / no-pme / no-psnr / ssim / log-level=2 / input-csp=1 / input-res=1920x800 / interlace=0 / total-frames=184560 / level-idc=0 / high-tier=1 / uhd-bd=0 / ref=4 / no-allow-non-conformance / no-repeat-headers / annexb / no-aud / no-hrd / info / hash=0 / no-temporal-layers / open-gop / min-keyint=23 / keyint=250 / gop-lookahead=0 / bframes=4 / b-adapt=2 / b-pyramid / bframe-bias=0 / rc-lookahead=25 / lookahead-slices=4 / scenecut=40 / radl=0 / no-intra-refresh / ctu=64 / min-cu-size=8 / rect / no-amp / max-tu-size=32 / tu-inter-depth=1 / tu-intra-depth=1 / limit-tu=0 / rdoq-level=2 / dynamic-rd=0.00 / ssim-rd / signhide / no-tskip / nr-intra=0 / nr-inter=0 / no-constrained-intra / strong-intra-smoothing / max-merge=3 / limit-refs=3 / limit-modes / me=3 / subme=3 / merange=57 / temporal-mvp / weightp / no-weightb / no-analyze-src-pics / deblock=-2:-2 / sao / sao-non-deblock / rd=4 / early-skip / rskip / no-fast-intra / no-tskip-fast / no-cu-lossless / no-b-intra / no-splitrd-skip / rdpenalty=0 / psy-rd=0.00 / psy-rdoq=1.00 / no-rd-refine / no-lossless / cbqpoffs=0 / crqpoffs=0 / rc=crf / crf=21.5 / qcomp=0.60 / qpstep=4 / stats-write=0 / stats-read=0 / ipratio=1.40 / pbratio=1.30 / aq-mode=3 / aq-strength=1.00 / cutree / zone-count=0 / no-strict-cbr / qg-size=32 / no-rc-grain / qpmax=69 / qpmin=0 / no-const-vbv / sar=0 / overscan=0 / videoformat=5 / range=0 / colorprim=2 / transfer=2 / colormatrix=2 / chromaloc=0 / display-window=0 / max-cll=0,0 / min-luma=0 / max-luma=1023 / log2-max-poc-lsb=8 / vui-timing-info / vui-hrd-info / slices=1 / no-opt-qp-pps / no-opt-ref-list-length-pps / no-multi-pass-opt-rps / scenecut-bias=0.05 / no-opt-cu-delta-qp / no-aq-motion / no-hdr / no-hdr-opt / no-dhdr10-opt / no-idr-recovery-sei / analysis-reuse-level=5 / scale-factor=0 / refine-intra=0 / refine-inter=0 / refine-mv=0 / no-limit-sao / ctu-info=0 / no-lowpass-dct / refine-mv-type=0 / copy-pic=1 / max-ausize-factor=1.0 / no-dynamic-refine / no-single-sei
Default : Yes
Forced : No

Audio
ID : 2
Format : AAC
Format/Info : Advanced Audio Codec
Format profile : LC
Codec ID : A_AAC
Duration : 2 h 8 min
Bit rate : 353 kb/s
Channel(s) : 7 channels
Channel(s)_Original : 8 channels
Channel positions : Front: L C R, Side: L R, Back: L R, LFE
Sampling rate : 48.0 kHz
Frame rate : 46.875 FPS (1024 spf)
Compression mode : Lossy
Delay relative to video : 9 ms
Stream size : 322 MiB (18%)
Language : English
Default : No
Forced : No

Subtitle #1
ID : 3
Format : PGS
Muxing mode : zlib
Codec ID : S_HDMV/PGS
Codec ID/Info : Picture based subtitle format used on BDs/HD-DVDs
Duration : 2 h 7 min
Bit rate : 34.7 kb/s
Count of elements : 3540
Stream size : 31.5 MiB (2%)
Language : English
Default : No
Forced : No

Subtitle #2
ID : 4
Format : UTF-8
Codec ID : S_TEXT/UTF8
Codec ID/Info : UTF-8 Plain Text
Duration : 1 h 55 min
Bit rate : 43 b/s
Count of elements : 1379
Stream size : 37.2 KiB (0%)
Language : English
Default : No
Forced : No

Subtitle #3
ID : 5
Format : VobSub
Muxing mode : zlib
Codec ID : S_VOBSUB
Codec ID/Info : Picture based subtitle format used on DVDs
Duration : 2 h 6 min
Bit rate : 7 122 b/s
Count of elements : 1295
Stream size : 6.44 MiB (0%)
Language : Spanish
Default : No
Forced : No

Subtitle #4
ID : 6
Format : VobSub
Muxing mode : zlib
Codec ID : S_VOBSUB
Codec ID/Info : Picture based subtitle format used on DVDs
Duration : 2 h 6 min
Bit rate : 6 739 b/s
Count of elements : 1296
Stream size : 6.10 MiB (0%)
Language : French
Default : No
Forced : No

Subtitle #5
ID : 7
Format : UTF-8
Codec ID : S_TEXT/UTF8
Codec ID/Info : UTF-8 Plain Text
Duration : 1 h 58 min
Bit rate : 60 b/s
Count of elements : 1088
Stream size : 52.6 KiB (0%)
Language : Arabic
Default : No
Forced : No

Subtitle #6
ID : 8
Format : UTF-8
Codec ID : S_TEXT/UTF8
Codec ID/Info : UTF-8 Plain Text
Duration : 1 h 56 min
Bit rate : 36 b/s
Count of elements : 1299
Stream size : 31.1 KiB (0%)
Language : Chinese
Default : No
Forced : No

Subtitle #7
ID : 9
Format : UTF-8
Codec ID : S_TEXT/UTF8
Codec ID/Info : UTF-8 Plain Text
Duration : 2 h 7 min
Bit rate : 34 b/s
Count of elements : 939
Stream size : 32.6 KiB (0%)
Language : Danish
Default : No
Forced : No

Subtitle #8
ID : 10
Format : UTF-8
Codec ID : S_TEXT/UTF8
Codec ID/Info : UTF-8 Plain Text
Duration : 1 h 56 min
Bit rate : 35 b/s
Count of elements : 748
Stream size : 30.1 KiB (0%)
Language : Dutch
Default : No
Forced : No

Subtitle #9
ID : 11
Format : UTF-8
Codec ID : S_TEXT/UTF8
Codec ID/Info : UTF-8 Plain Text
Duration : 2 h 7 min
Bit rate : 65 b/s
Count of elements : 1373
Stream size : 61.0 KiB (0%)
Language : Persian
Default : No
Forced : No

Subtitle #10
ID : 12
Format : UTF-8
Codec ID : S_TEXT/UTF8
Codec ID/Info : UTF-8 Plain Text
Duration : 1 h 57 min
Bit rate : 53 b/s
Count of elements : 1044
Stream size : 45.9 KiB (0%)
Language : Hebrew
Default : No
Forced : No

Subtitle #11
ID : 13
Format : UTF-8
Codec ID : S_TEXT/UTF8
Codec ID/Info : UTF-8 Plain Text
Duration : 2 h 1 min
Bit rate : 72 b/s
Count of elements : 1083
Stream size : 64.4 KiB (0%)
Language : Indonesian
Default : No
Forced : No

Subtitle #12
ID : 14
Format : UTF-8
Codec ID : S_TEXT/UTF8
Codec ID/Info : UTF-8 Plain Text
Duration : 1 h 57 min
Bit rate : 32 b/s
Count of elements : 1049
Stream size : 27.6 KiB (0%)
Language : Japanese
Default : No
Forced : No

Subtitle #13
ID : 15
Format : UTF-8
Codec ID : S_TEXT/UTF8
Codec ID/Info : UTF-8 Plain Text
Duration : 1 h 56 min
Bit rate : 44 b/s
Count of elements : 1074
Stream size : 38.2 KiB (0%)
Language : Romanian
Default : No
Forced : No

Subtitle #14
ID : 16
Format : UTF-8
Codec ID : S_TEXT/UTF8
Codec ID/Info : UTF-8 Plain Text
Duration : 1 h 57 min
Bit rate : 72 b/s
Count of elements : 1727
Stream size : 62.7 KiB (0%)
Language : Russian
Default : No
Forced : No

Subtitle #15
ID : 17
Format : UTF-8
Codec ID : S_TEXT/UTF8
Codec ID/Info : UTF-8 Plain Text
Duration : 1 h 56 min
Bit rate : 39 b/s
Count of elements : 863
Stream size : 33.7 KiB (0%)
Language : Swedish
Default : No
Forced : No

Subtitle #16
ID : 18
Format : UTF-8
Codec ID : S_TEXT/UTF8
Codec ID/Info : UTF-8 Plain Text
Duration : 2 h 8 min
Bit rate : 86 b/s
Count of elements : 1076
Stream size : 81.4 KiB (0%)
Language : Thai
Default : No
Forced : No

Subtitle #17
ID : 19
Format : UTF-8
Codec ID : S_TEXT/UTF8
Codec ID/Info : UTF-8 Plain Text
Duration : 1 h 56 min
Bit rate : 40 b/s
Count of elements : 1032
Stream size : 34.9 KiB (0%)
Language : Turkish
Default : No
Forced : No

Subtitle #18
ID : 20
Format : UTF-8
Codec ID : S_TEXT/UTF8
Codec ID/Info : UTF-8 Plain Text
Duration : 1 h 56 min
Bit rate : 56 b/s
Count of elements : 1380
Stream size : 48.3 KiB (0%)
Language : Vietnamese
Default : No
Forced : No

Menu
00:00:00.000 : :Chapter 1
00:07:13.224 : :Chapter 2
00:12:01.554 : :Chapter 3
00:17:17.745 : :Chapter 4
00:21:17.192 : :Chapter 5
00:28:49.811 : :Chapter 6
00:35:04.685 : :Chapter 7
00:40:51.574 : :Chapter 8
00:46:32.498 : :Chapter 9
00:52:04.996 : :Chapter 10
01:00:59.197 : :Chapter 11
01:06:50.256 : :Chapter 12
01:11:07.638 : :Chapter 13
01:17:21.094 : :Chapter 14
01:26:55.210 : :Chapter 15
01:33:01.492 : :Chapter 16
01:42:55.878 : :Chapter 17
01:50:01.553 : :Chapter 18
01:54:56.222 : :Chapter 19
01:58:37.985 : :Chapter 20



Source Information

Code:

Release:
Jurassic.World.Fallen.Kingdom.2018.2160p.BluRay.x265.10bit.SDR.DTS-X.7.1-SWTYBLZ (17.8 GB)




Files:

  • Jurassic World Fallen Kingdom 2018 (1080p x265 q22 S96 Joy).mkv (1.8 GB)

Comments

Code:

  • udp://p4p.arenabg.ch:1337/announce
  • udp://tracker.leechers-paradise.org:6969/announce
  • udp://tracker.coppersurfer.tk:6969/announce
  • udp://9.rarbg.com:2710/announce
  • udp://9.rarbg.to:2710/announce
  • udp://eddie4.nl:6969/announce
  • udp://tracker.mgtracker.org:2710/announce
  • udp://mgtracker.org:6969/announce
  • udp://public.popcorn-tracker.org:6969/announce
  • udp://tracker.torrent.eu.org:451/announce
  • udp://tracker.opentrackr.org:1337/announce
SitemapDescargar APK | Shoujo Kishidan x Knight Tale | Домашний медиа-сервер. Версия 2.19 [UPnP, DLNA, HTTP] (2016) PC GMAT Blog | Descargar La pequeña bruja latino | Top Films