Mary Magdalene (2018) 720p BluRay x264 ORG Hindi PGS English SDH ...

  • Category Movies
  • Type HD
  • Language English
  • Total size 1.0 GB
  • Uploaded By abuhamza420
  • Downloads 545
  • Last checked 28 minutes ago
  • Date uploaded 6 hours ago
  • Seeders 1
  • Leechers 52

Mary Magdalene

Drama

Set in the Holy Land in the first century C.E., a young woman leaves her small fishing village and traditional family behind to join a radical new social movement. At its head is a charismatic leader, Jesus of Nazareth, who promises that the world is changing. Mary is searching for a new way of living, and an authenticity that is denied her by the rigid hierarchies of the day. As the notoriety of the group spread and more are drawn to follow Jesus’ inspirational message, Mary’s spiritual journey places her at the heart of a story that will lead to the capital city of Jerusalem, where she must confront the reality of Jesus’ destiny and her own place within it.

Infohash : E8612888943EF4F65BE2F97612AEA9264509865E







Mary Magdalene (2018) 720p BluRay x264 Dual ORG Hindi PGS English SDH Subtitle English Audio - MoviesMB


MoviesMB.Com


Downloadhub.Icu


Buy PowerFull VPS And RDP From RDPArena.com

Use Coupon EXTRADESI get 30% Discount on All RDP and VPS Plans






Sample


Video
ID                                       : 1
Format                                   : AVC
Format/Info                              : Advanced Video Codec
Format profile                           : [email protected]
Format settings                          : CABAC / 4 Ref Frames
Format settings, CABAC                   : Yes
Format settings, RefFrames               : 4 frames
Codec ID                                 : V_MPEG4/ISO/AVC
Duration                                 : 1 h 59 min
Bit rate                                 : 1 050 kb/s
Width                                    : 1 280 pixels
Height                                   : 576 pixels
Display aspect ratio                     : 2.222
Frame rate mode                          : Constant
Frame rate                               : 23.976 (24000/1001) FPS
Color space                              : YUV
Chroma subsampling                       : 4:2:0
Bit depth                                : 8 bits
Scan type                                : Progressive
Bits/(Pixel*Frame)                       : 0.059
Stream size                              : 900 MiB (87%)
Default                                  : Yes
Forced                                   : No

Audio
ID                                       : 2
Format                                   : AAC
Format/Info                              : Advanced Audio Codec
Format profile                           : LC
Codec ID                                 : A_AAC-2
Duration                                 : 1 h 59 min
Bit rate                                 : 148 kb/s
Channel(s)                               : 2 channels
Channel positions                        : Front: L R
Sampling rate                            : 48.0 kHz
Frame rate                               : 46.875 FPS (1024 SPF)
Compression mode                         : Lossy
Delay relative to video                  : -43 ms
Stream size                              : 126 MiB (12%)
Default                                  : Yes
Forced                                   : No

Text #1
ID                                       : 3
Format                                   : PGS
Muxing mode                              : zlib
Codec ID                                 : S_HDMV/PGS
Codec ID/Info                            : Picture based subtitle format used on BDs/HD-DVDs
Duration                                 : 1 h 12 min
Bit rate                                 : 196 b/s
Count of elements                        : 36
Stream size                              : 105 KiB (0%)
Language                                 : English
Default                                  : Yes
Forced                                   : No

Text #2
ID                                       : 4
Format                                   : PGS
Muxing mode                              : zlib
Codec ID                                 : S_HDMV/PGS
Codec ID/Info                            : Picture based subtitle format used on BDs/HD-DVDs
Duration                                 : 1 h 58 min
Bit rate                                 : 22.8 kb/s
Count of elements                        : 2144
Stream size                              : 19.3 MiB (2%)
Language                                 : English
Default                                  : No
Forced                                   : No

Text #3
ID                                       : 5
Format                                   : PGS
Muxing mode                              : zlib
Codec ID                                 : S_HDMV/PGS
Codec ID/Info                            : Picture based subtitle format used on BDs/HD-DVDs
Duration                                 : 1 h 58 min
Bit rate                                 : 17.1 kb/s
Count of elements                        : 1868
Stream size                              : 14.4 MiB (1%)
Language                                 : Hindi
Default                                  : No
Forced                                   : No







Mary Magdalene (2018) 720p BluRay x264 Dual ORG Hindi PGS English SDH Subtitle English Audio - MoviesMB











Files:

Mary Magdalene (2018) 720p BluRay x264 Dual ORG Hindi PGS English SDH Subtitle English Audio - MoviesMB
  • Mary Magdalene (2018) 720p BluRay x264 Dual ORG Hindi PGS English SDH Subtitle English Audio - MoviesMB.mkv (1.0 GB)
  • Sample - Mary Magdalene (2018) 720p BluRay x264 Dual ORG Hindi PGS English SDH Subtitle English Audio - MoviesMB (1).mkv (6.0 MB)
  • Buy RDP - RDPArena.com.url (0.1 KB)
  • Downloadhub.icu Free 300MB Movies Download.url (0.1 KB)
  • Download Latest Movies From MoviesMb.Com.url (0.1 KB)

There are currently no comments. Feel free to leave one :)

Code:

  • UDP://TRACKER.LEECHERS-PARADISE.ORG:6969/ANNOUNCE
  • UDP://TRACKER.COPPERSURFER.TK:6969/ANNOUNCE
  • UDP://TRACKER.OPENTRACKR.ORG:1337/ANNOUNCE
  • udp://9.rarbg.to:2710/announce
  • UDP://EDDIE4.NL:6969/ANNOUNCE
  • udp://inferno.demonoid.pw:3391/announce
SitemapDownload | Trigonometry | Stop The World Hollywood 2018 | The Recording Engineer's Handbook by Bobby Owsinski | اجتماعی