Darkest Hour (2017) 720p BluRay x264 ORG Hindi PGS English Subtit...

  • Category Movies
  • Type HD
  • Language English
  • Total size 952.2 MB
  • Uploaded By abuhamza420
  • Downloads 423
  • Last checked 1 hour ago
  • Date uploaded 14 hours ago
  • Seeders 17
  • Leechers 30

Darkest Hour

DramaHistoryWar

A thrilling and inspiring true story begins on the eve of World War II as, within days of becoming Prime Minister of Great Britain, Winston Churchill must face one of his most turbulent and defining trials: exploring a negotiated peace treaty with Nazi Germany, or standing firm to fight for the ideals, liberty and freedom of a nation. As the unstoppable Nazi forces roll across Western Europe and the threat of invasion is imminent, and with an unprepared public, a skeptical King, and his own party plotting against him, Churchill must withstand his darkest hour, rally a nation, and attempt to change the course of world history.

Infohash : 4BFFB76AF956D6A8A135E3CCEF48BA714510B5C7







Darkest Hour (2017) 720p BluRay x264 Dual ORG Hindi PGS English Subtitle English Audio - MoviesMB


MoviesMB.Com


Downloadhub.Icu


Buy PowerFull VPS And RDP From RDPArena.com

Use Coupon EXTRADESI get 30% Discount on All RDP and VPS Plans






Sample


Video
ID                                       : 1
Format                                   : AVC
Format/Info                              : Advanced Video Codec
Format profile                           : [email protected]
Format settings                          : CABAC / 4 Ref Frames
Format settings, CABAC                   : Yes
Format settings, RefFrames               : 4 frames
Codec ID                                 : V_MPEG4/ISO/AVC
Duration                                 : 2 h 4 min
Bit rate                                 : 900 kb/s
Width                                    : 1 280 pixels
Height                                   : 688 pixels
Display aspect ratio                     : 1.85:1
Frame rate mode                          : Constant
Frame rate                               : 23.976 (24000/1001) FPS
Color space                              : YUV
Chroma subsampling                       : 4:2:0
Bit depth                                : 8 bits
Scan type                                : Progressive
Bits/(Pixel*Frame)                       : 0.043
Stream size                              : 804 MiB (85%)
Language                                 : English
Default                                  : Yes
Forced                                   : No

Audio
ID                                       : 2
Format                                   : AAC
Format/Info                              : Advanced Audio Codec
Format profile                           : LC
Codec ID                                 : A_AAC-2
Duration                                 : 2 h 4 min
Bit rate                                 : 119 kb/s
Channel(s)                               : 2 channels
Channel positions                        : Front: L R
Sampling rate                            : 48.0 kHz
Frame rate                               : 46.875 FPS (1024 SPF)
Compression mode                         : Lossy
Delay relative to video                  : -43 ms
Stream size                              : 106 MiB (11%)
Language                                 : English
Default                                  : Yes
Forced                                   : No

Text #1
ID                                       : 3
Format                                   : PGS
Muxing mode                              : zlib
Codec ID                                 : S_HDMV/PGS
Codec ID/Info                            : Picture based subtitle format used on BDs/HD-DVDs
Duration                                 : 2 h 3 min
Bit rate                                 : 28.3 kb/s
Count of elements                        : 3356
Stream size                              : 25.0 MiB (3%)
Language                                 : Hindi
Default                                  : Yes
Forced                                   : No

Text #2
ID                                       : 4
Format                                   : PGS
Muxing mode                              : zlib
Codec ID                                 : S_HDMV/PGS
Codec ID/Info                            : Picture based subtitle format used on BDs/HD-DVDs
Duration                                 : 4 s 880 ms
Bit rate                                 : 30.5 kb/s
Count of elements                        : 6
Stream size                              : 18.2 KiB (0%)
Language                                 : English
Default                                  : No
Forced                                   : No

Text #3
ID                                       : 5
Format                                   : PGS
Muxing mode                              : zlib
Codec ID                                 : S_HDMV/PGS
Codec ID/Info                            : Picture based subtitle format used on BDs/HD-DVDs
Duration                                 : 1 h 57 min
Bit rate                                 : 40.0 kb/s
Count of elements                        : 3470
Stream size                              : 33.6 MiB (4%)
Language                                 : English
Default                                  : No
Forced                                   : No

Text #4
ID                                       : 6
Format                                   : PGS
Muxing mode                              : zlib
Codec ID                                 : S_HDMV/PGS
Codec ID/Info                            : Picture based subtitle format used on BDs/HD-DVDs
Duration                                 : 1 h 57 min
Bit rate                                 : 39.6 kb/s
Count of elements                        : 3628
Stream size                              : 33.2 MiB (4%)
Language                                 : English
Default                                  : No
Forced                                   : No











Darkest Hour (2017) 720p BluRay x264 Dual ORG Hindi PGS English Subtitle English Audio - MoviesMB











Files:

Darkest Hour (2017) 720p BluRay x264 Dual ORG Hindi PGS English Subtitle English Audio - MoviesMB
  • Darkest Hour (2017) 720p BluRay x264 Dual ORG Hindi PGS English Subtitle English Audio - MoviesMB.mkv (942.0 MB)
  • Sample - Darkest Hour (2017) 720p BluRay x264 Dual ORG Hindi PGS English Subtitle English Audio - MoviesMB (1).mkv (10.2 MB)
  • Buy RDP - RDPArena.com.url (0.1 KB)
  • Downloadhub.icu Free 300MB Movies Download.url (0.1 KB)
  • Download Latest Movies From MoviesMb.Com.url (0.1 KB)

There are currently no comments. Feel free to leave one :)

Code:

  • UDP://TRACKER.LEECHERS-PARADISE.ORG:6969/ANNOUNCE
  • UDP://TRACKER.COPPERSURFER.TK:6969/ANNOUNCE
  • UDP://TRACKER.OPENTRACKR.ORG:1337/ANNOUNCE
  • udp://9.rarbg.to:2710/announce
  • UDP://EDDIE4.NL:6969/ANNOUNCE
  • udp://inferno.demonoid.pw:3391/announce
SitemapChuyện Ấy Khi Tôi 19/ Đừng có mơ | Cassandra - Bukan Cinta Palsu | Maya the Bee: The Honey Games (2018) └ Garten & Terrasse | Article on Farmers Suicides in India | S2 E13 13 Reasons Why