Download | HD Taxi 5 | Une Femme de tête FRENCH WEBRIP 1080p 2018Watch now! | Tu si que vales | Anti-Social streaming

The Predator 2018 720p HDTS x264 [MW]

  • Category Movies
  • Type h.264/x264
  • Language English
  • Total size 1.2 GB
  • Uploaded By moviezworldz
  • Downloads 286
  • Last checked 21 minutes ago
  • Date uploaded 4 hours ago
  • Seeders 144
  • Leechers 129

The Predator

HorrorScience FictionActionAdventure

From the outer reaches of space to the small-town streets of suburbia, the hunt comes home. Now, the universe’s most lethal hunters are stronger, smarter and deadlier than ever before, having genetically upgraded themselves with DNA from other species. When a young boy accidentally triggers their return to Earth, only a ragtag crew of ex-soldiers and a disgruntled science teacher can prevent the end of the human race.

Infohash : 06C9870C436049DA4D823A905729EE0F5636D460






General
Format : Matroska
Format version : Version 4 / Version 2
File size : 1.15 GiB
Duration : 1 h 40 min
Overall bit rate : 1 638 kb/s

Video
ID : 1
Format : AVC
Format/Info : Advanced Video Codec
Format profile : [email protected]
Format settings : CABAC / 4 Ref Frames
Format settings, CABAC : Yes
Format settings, RefFrames : 4 frames
Codec ID : V_MPEG4/ISO/AVC
Duration : 1 h 40 min
Bit rate : 1 400 kb/s
Width : 1 280 pixels
Height : 532 pixels
Display aspect ratio : 2.40:1
Frame rate mode : Constant
Frame rate : 29.970 (30000/1001) FPS
Color space : YUV
Chroma subsampling : 4:2:0
Bit depth : 8 bits
Scan type : Progressive
Bits/(Pixel*Frame) : 0.069
Stream size : 1 016 MiB (86%)
Writing library : x264 core 155 r2901 7d0ff22
Default : Yes
Forced : No

Audio
ID : 2
Format : AAC
Format/Info : Advanced Audio Codec
Format profile : LC
Codec ID : A_AAC-2
Duration : 1 h 40 min
Bit rate : 224 kb/s
Channel(s) : 2 channels
Channel positions : Front: L R
Sampling rate : 48.0 kHz
Frame rate : 46.875 FPS (1024 SPF)
Compression mode : Lossy
Stream size : 161 MiB (14%)
Language : English
Default : Yes
Forced : No


Click To Enlarge Image









Files:

The Predator 2018 720p HDTS x264 [MW]
  • The Predator 2018 720p HDTS x264 [MW].mkv (1.2 GB)

There are currently no comments. Feel free to leave one :)

Code:

  • udp://tracker.coppersurfer.tk:6969/announce
  • udp://tracker.pirateparty.gr:6969/announce
  • udp://tracker.coppersurfer.tk:6969/announce
  • udp://tracker.leechers-paradise.org:6969/announce
  • udp://eddie4.nl:6969/announce
  • udp://tracker.tiny-vps.com:6969/announce
  • udp://9.rarbg.me:2800/announce
  • udp://9.rarbg.to:2720/announce
  • udp://public.popcorn-tracker.org:6969/announce
  • udp://open.stealth.si:80/announce
  • udp://tracker.vanitycore.co:6969/announce
  • udp://tracker.opentrackr.org:1337/announce
  • udp://bt.firebit.co.uk:6969/announce
  • udp://shadowshq.yi.org:6969/announce