Astro Boy ONLINE | Romanzo Criminale (2008–2010) | الاخيرة حلقة 30 مسلسل ابن بطوطة الحلقة 30 والاخيرة 2018 HDTv مسلسل ابن بطوطة الحلقة 30 والاخيرة تاريخي مشاهدة وتحميل مسلسل ابن بطوطة 2018 HD اون لاين وتحميل مباشر مشاهدة مسلسل ابن بطوطة الحلقة 30 والاخيرة اون لاين,تحميل...Jogos de Ação | Play Movie | Animegg 2018

Genius 2018 x264 720p HD Hindi GOPISAHI

  • Category Movies
  • Type Bollywood
  • Language English
  • Total size 839.0 MB
  • Uploaded By PENDUDESI
  • Downloads 346
  • Last checked 53 minutes ago
  • Date uploaded 8 hours ago
  • Seeders 10
  • Leechers 17

Genius

ThrillerAction

An orphan, with a brilliant mind, joins RAW and is burdened by the killing of his entire team. Until he doesn't avenge their death, he can't live in peace with his love. So, he hatches a genius plan.

Infohash : F121C80EE3721B79FA6DEA6A9385E8D8C6733A20

http://www.gopisahi.pw/

Format : Matroska
Format version : Version 4 / Version 2
File size : 839 MiB
Duration : 2 h 26 min
Overall bit rate : 800 kb/s
Movie name : Genius 2018 GOPISAHI

Format : AVC
Format/Info : Advanced Video Codec
Codec ID : V_MPEG4/ISO/AVC
Duration : 2 h 26 min
Bit rate : 699 kb/s
Width : 1 278 pixels
Height : 600 pixels
Display aspect ratio : 2.40:1
Original display aspect ratio : 2.40:1
Frame rate mode : Constant
Frame rate : 60.000 FPS
Color space : YUV
Chroma subsampling : 4:2:0
Bit depth : 8 bits
Scan type : Progressive
Bits/(Pixel*Frame) : 0.015
Stream size : 733 MiB (87%)
Title : GOPISAHI
Writing library : x264 core 155 r2901 7d0ff22

Audio
Format : AAC
Duration : 2 h 26 min
Bit rate : 96.0 kb/s
Channel(s) : 2 channels
Channel positions : Front: L R
Sampling rate : 48.0 kHz
Frame rate : 46.875 FPS (1024 SPF)
Compression mode : Lossy
Delay relative to video : -19 ms
Stream size : 101 MiB (12%)
Title : GOPISAHI
Language : Hindi


Files:

  • Genius 2018 x264 720p HD Hindi GOPISAHI.mkv (839.0 MB)

There are currently no comments. Feel free to leave one :)

Code:

  • udp://tracker.torrent.eu.org:451/announce
  • udp://182.176.139.129:6969/announce
  • udp://tracker.tiny-vps.com:6969/announce
  • udp://tracker-2.msm8916.com:6969/announce
  • udp://seedbay.net:2710/announce
  • udp://torr.ws:2710/announce
  • http://retracker.spb.ru:80/announce
  • udp://exodus.desync.com:6969/announce
  • udp://zer0day.to:1337/announce
  • udp://tracker.leechers-paradise.org:6969/announce
  • udp://tracker.ilibr.org:80/announce
  • udp://tracker.coppersurfer.tk:6969/announce
  • udp://tracker.coppersurfer.tk:80/announce
  • udp://p4p.arenabg.com:1337/announce
  • udp://p4p.arenabg.ch:1337/announce
  • udp://tracker.ds.is:6969/announce
  • udp://bt.firebit.co.uk:6969/announce
  • udp://shadowshq.yi.org:6969/announce
  • http://t.nyaatracker.com:80/announce
  • udp://bt.xxx-tracker.com:2710/announce
  • udp://tracker.port443.xyz:6969/announce
  • udp://open.demonii.si:1337/announce
  • udp://tracker.qt.is:6969/announce
  • udp://tracker.uw0.xyz:6969/announce
  • udp://tracker.internetwarriors.net:1337/announce
  • udp://retracker.lanta-net.ru:2710/announce
  • http://retracker.mgts.by:80/announce
  • udp://open.stealth.si:80/announce
  • http://tracker2.itzmx.com:6961/announce
  • udp://inferno.demonoid.pw:3391/announce
  • udp://tracker.pirateparty.gr:6969/announce
  • udp://tracker.opentrackr.org:1337/announce
  • udp://public.popcorn-tracker.org:6969/announce
  • udp://9.rarbg.com:2710/announce
  • udp://9.rarbg.me:2710/announce
  • udp://9.rarbg.to:2790/announce
  • udp://9.rarbg.me:2800/announce
  • udp://9.rarbg.com:2780/announce
  • udp://9.rarbg.me:2800/announce
  • udp://eddie4.nl:6969/announce