Skyscraper (2018) (1080p BluRay 10bit x265 HEVC TrueHD 7.1 Qman) ...

  • Category Movies
  • Type HEVC/x265
  • Language English
  • Total size 7.0 GB
  • Uploaded By UTRCorp
  • Downloads 3
  • Last checked 19 minutes ago
  • Date uploaded 54 minutes ago
  • Seeders 2
  • Leechers 2

Skyscraper

ActionThrillerDrama

Framed and on the run, a former FBI agent must save his family from a blazing fire in the world's tallest building.

Infohash : 5D2FAF772627DB6DA6BA833AF45059E91EC525F1



Source :








Encode :










Media Information

Media Information


Code:

General
Format                                   : Matroska
Format version                           : Version 4 / Version 2
File size                                : 7.04 GiB
Duration                                 : 1 h 42 min
Overall bit rate mode                    : Variable
Overall bit rate                         : 9 840 kb/s
Encoded date                             : UTC 2018-10-07 19:46:46
Writing application                      : mkvmerge v26.0.0 ('In The Game') 64-bit
Writing library                          : libebml v1.3.6 + libmatroska v1.4.9

Video
ID                                       : 1
Format                                   : HEVC
Format/Info                              : High Efficiency Video Coding
Format profile                           : Main [email protected]@Main
Codec ID                                 : V_MPEGH/ISO/HEVC
Duration                                 : 1 h 42 min
Bit rate                                 : 6 283 kb/s
Width                                    : 1 920 pixels
Height                                   : 1 080 pixels
Display aspect ratio                     : 16:9
Frame rate mode                          : Constant
Frame rate                               : 23.976 (24000/1001) FPS
Color space                              : YUV
Chroma subsampling                       : 4:2:0
Bit depth                                : 10 bits
Bits/(Pixel*Frame)                       : 0.126
Stream size                              : 4.49 GiB (64%)
Writing library                          : x265 2.8+74-fd517ae68f93:[Windows][MSVC 1915][64 bit] 10bit
Encoding settings                        : cpuid=1111039 / frame-threads=2 / numa-pools=4 / wpp / no-pmode / no-pme / no-psnr / no-ssim / log-level=2 / input-csp=1 / input-res=1920x1080 / interlace=0 / total-frames=147312 / level-idc=0 / high-tier=1 / uhd-bd=0 / ref=4 / no-allow-non-conformance / no-repeat-headers / annexb / no-aud / no-hrd / info / hash=0 / no-temporal-layers / open-gop / min-keyint=23 / keyint=250 / gop-lookahead=0 / bframes=8 / b-adapt=2 / b-pyramid / bframe-bias=0 / rc-lookahead=50 / lookahead-slices=4 / scenecut=40 / radl=0 / no-intra-refresh / ctu=64 / min-cu-size=8 / rect / no-amp / max-tu-size=32 / tu-inter-depth=1 / tu-intra-depth=1 / limit-tu=0 / rdoq-level=2 / dynamic-rd=0.00 / no-ssim-rd / signhide / no-tskip / nr-intra=0 / nr-inter=0 / no-constrained-intra / no-strong-intra-smoothing / max-merge=3 / limit-refs=3 / limit-modes / me=3 / subme=5 / merange=57 / temporal-mvp / weightp / no-weightb / no-analyze-src-pics / deblock=-3:-3 / no-sao / no-sao-non-deblock / rd=4 / no-early-skip / no-rskip / no-fast-intra / no-tskip-fast / no-cu-lossless / b-intra / no-splitrd-skip / rdpenalty=0 / psy-rd=1.00 / psy-rdoq=5.00 / no-rd-refine / no-lossless / cbqpoffs=-3 / crqpoffs=-3 / rc=crf / crf=18.0 / qcomp=0.60 / qpstep=4 / stats-write=0 / stats-read=0 / ipratio=1.40 / pbratio=1.30 / aq-mode=2 / aq-strength=1.00 / cutree / zone-count=0 / no-strict-cbr / qg-size=32 / no-rc-grain / qpmax=69 / qpmin=0 / no-const-vbv / sar=0 / overscan=0 / videoformat=5 / range=0 / colorprim=2 / transfer=2 / colormatrix=2 / chromaloc=0 / display-window=0 / max-cll=0,0 / min-luma=0 / max-luma=1023 / log2-max-poc-lsb=8 / vui-timing-info / vui-hrd-info / slices=1 / no-opt-qp-pps / no-opt-ref-list-length-pps / no-multi-pass-opt-rps / scenecut-bias=0.05 / no-opt-cu-delta-qp / no-aq-motion / no-hdr / no-hdr-opt / no-dhdr10-opt / no-idr-recovery-sei / analysis-reuse-level=5 / scale-factor=0 / refine-intra=0 / refine-inter=0 / refine-mv=0 / no-limit-sao / ctu-info=0 / no-lowpass-dct / refine-mv-type=0 / copy-pic=1 / max-ausize-factor=1.0 / no-dynamic-refine / no-single-sei
Language                                 : English
Default                                  : Yes
Forced                                   : No

Audio #1
ID                                       : 2
Format                                   : Atmos / TrueHD
Codec ID                                 : A_TRUEHD
Duration                                 : 1 h 42 min
Bit rate mode                            : Variable
Bit rate                                 : 2 836 kb/s
Maximum bit rate                         : 5 022 kb/s
Channel(s)                               : Object Based / 8 channels
Channel positions                        : Object Based / Front: L C R, Side: L R, Back: L R, LFE
Sampling rate                            :  / 48.0 kHz
Frame rate                               : 1 200.000 FPS (40 spf)
Compression mode                         : Lossless
Stream size                              : 2.03 GiB (29%)
Language                                 : English
Default                                  : Yes
Forced                                   : No

Audio #2
ID                                       : 3
Format                                   : AC-3
Format/Info                              : Audio Coding 3
Mode extension                           : CM (complete main)
Format settings, Endianness              : Big
Codec ID                                 : A_AC3
Duration                                 : 1 h 42 min
Bit rate mode                            : Constant
Bit rate                                 : 448 kb/s
Channel(s)                               : 6 channels
Channel positions                        : Front: L C R, Side: L R, LFE
Sampling rate                            : 48.0 kHz
Frame rate                               : 31.250 FPS (1536 spf)
Bit depth                                : 16 bits
Compression mode                         : Lossy
Stream size                              : 328 MiB (5%)
Title                                    : Compatibility Track / Dolby Digital Audio / 5.1 / 48 kHz / 448 kbps
Language                                 : English
Default                                  : No
Forced                                   : No

Audio #3
ID                                       : 4
Format                                   : AC-3
Format/Info                              : Audio Coding 3
Format profile                           : Dolby Digital
Mode extension                           : CM (complete main)
Format settings, Endianness              : Big
Codec ID                                 : A_AC3
Duration                                 : 1 h 42 min
Bit rate mode                            : Constant
Bit rate                                 : 192 kb/s
Channel(s)                               : 2 channels
Channel positions                        : Front: L R
Sampling rate                            : 48.0 kHz
Frame rate                               : 31.250 FPS (1536 spf)
Bit depth                                : 16 bits
Compression mode                         : Lossy
Stream size                              : 141 MiB (2%)
Title                                    : Commentary by director Rawson Marshall Thurber
Language                                 : English
Default                                  : No
Forced                                   : No

Subtitle
ID                                       : 5
Format                                   : PGS
Muxing mode                              : zlib
Codec ID                                 : S_HDMV/PGS
Codec ID/Info                            : Picture based subtitle format used on BDs/HD-DVDs
Duration                                 : 1 h 32 min
Bit rate                                 : 38.5 kb/s
Count of elements                        : 2648
Stream size                              : 25.4 MiB (0%)
Language                                 : English
Default                                  : Yes
Forced                                   : No

Menu
00:00:00.000                             : en:Chapter 01
00:04:25.139                             : en:Chapter 02
00:10:07.356                             : en:Chapter 03
00:16:09.927                             : en:Chapter 04
00:21:12.604                             : en:Chapter 05
00:25:34.991                             : en:Chapter 06
00:30:11.726                             : en:Chapter 07
00:35:23.913                             : en:Chapter 08
00:40:07.113                             : en:Chapter 09
00:47:18.961                             : en:Chapter 10
00:52:10.252                             : en:Chapter 11
00:58:16.784                             : en:Chapter 12
01:02:02.969                             : en:Chapter 13
01:05:29.634                             : en:Chapter 14
01:09:59.403                             : en:Chapter 15
01:14:31.425                             : en:Chapter 16
01:17:18.258                             : en:Chapter 17
01:23:33.425                             : en:Chapter 18
01:27:46.219                             : en:Chapter 19
01:32:55.152                             : en:Chapter 20
01:42:22.511                             : en:Chapter 21



Source Information


Code:

Release:
REMUX 26.6GB EPSiLON



We have no issue with individuals posting or re-uploading our torrents on a platform we aren't on. However, if this is something you'd like to do, please do so in a 'as-is' format. We ask that you do not create a new torrent, include all descriptions you see above including the UTR logo, tags, notes and screenshots. If you'd like to become a permanent poster on a website we don't post to, feel free to get in contact with a UniTeam member.


Files:

Skyscraper (2018) (1080p BluRay 10bit x265 HEVC TrueHD 7.1 Qman) [UTR-HD]
  • Skyscraper.(2018).1080p.BluRay.10-bit.x265.TrueHD.7.1 Qman[UTR].(B8793AEF).mkv (7.0 GB)

There are currently no comments. Feel free to leave one :)

Code:

  • udp://9.rarbg.com:2710/announce
  • udp://tracker.opentrackr.org:1337/announce
  • udp://tracker.torrent.eu.org:451/announce
  • udp://tracker.leechers-paradise.org:6969/announce
  • udp://tracker.coppersurfer.tk:6969/announce
SitemapSale temps à lhôtel El Royale | Phim Lẻ 2013 | Terminada El Cuentacuentos 1987 telegram | Dual Áudio 2018 8.6 Vingadores: Guerra Infinita (2018) Torrent Dublado e Legendado | Infinity (19)