2018 Game Over, Man! | Island Subtitle Indonesia | CAM The PredatorAmerican Pie 5: O Último Stifler Virgem (The Naked Mile) 2006 | A tous les garçons que jai aimé | The Repair Shop - Season 3

18+ Sex And Zen 1991 720p BluRay x264 ESub [MW]

  • Category Movies
  • Type HD
  • Language English
  • Total size 891.4 MB
  • Uploaded By moviezworldz
  • Downloads 936
  • Last checked 30 minutes ago
  • Date uploaded 15 hours ago
  • Seeders 90
  • Leechers 119

Infohash : 687EDACCCA6D93A0D72990F571821B52E2A01B12




General
Format : Matroska
Format version : Version 4 / Version 2
File size : 891 MiB
Duration : 1 h 34 min
Overall bit rate : 1 324 kb/s

Video
ID : 1
Format : AVC
Format/Info : Advanced Video Codec
Format profile : [email protected]
Format settings : CABAC / 4 Ref Frames
Format settings, CABAC : Yes
Format settings, RefFrames : 4 frames
Codec ID : V_MPEG4/ISO/AVC
Duration : 1 h 34 min
Bit rate : 1 200 kb/s
Width : 1 280 pixels
Height : 692 pixels
Display aspect ratio : 1.85:1
Frame rate mode : Constant
Frame rate : 23.976 (24000/1001) FPS
Color space : YUV
Chroma subsampling : 4:2:0
Bit depth : 8 bits
Scan type : Progressive
Bits/(Pixel*Frame) : 0.057
Stream size : 804 MiB (90%)
Writing library : x264 core 155 r2901 7d0ff22
Default : Yes
Forced : No

Audio
ID : 2
Format : AAC
Format/Info : Advanced Audio Codec
Format profile : LC
Codec ID : A_AAC-2
Duration : 1 h 34 min
Bit rate : 129 kb/s
Channel(s) : 2 channels
Channel positions : Front: L R
Sampling rate : 48.0 kHz
Frame rate : 46.875 FPS (1024 SPF)
Compression mode : Lossy
Stream size : 86.4 MiB (10%)
Language : Chinese
Default : Yes
Forced : No

Text
ID : 3
Format : UTF-8
Codec ID : S_TEXT/UTF8
Codec ID/Info : UTF-8 Plain Text
Duration : 1 h 31 min
Bit rate : 26 b/s
Count of elements : 779
Stream size : 17.9 KiB (0%)
Language : English
Default : Yes
Forced : No


Note :- Movie Language is Chinese With English Subtitle

Click To Enlarge Image








Files:

18+ Sex And Zen 1991 720p BluRay x264 ESub [MW]
  • 18+ Sex And Zen 1991 720p BluRay x264 ESub [MW].mkv (891.4 MB)

There are currently no comments. Feel free to leave one :)

Code:

  • udp://tracker.coppersurfer.tk:6969/announce
  • udp://tracker.pirateparty.gr:6969/announce
  • udp://tracker.coppersurfer.tk:6969/announce
  • udp://tracker.tiny-vps.com:6969/announce
  • udp://9.rarbg.me:2740/announce
  • udp://9.rarbg.to:2790/announce
  • udp://public.popcorn-tracker.org:6969/announce
  • udp://tracker.vanitycore.co:6969/announce
  • udp://tracker.opentrackr.org:1337/announce
  • udp://open.stealth.si:80/announce