The Meg 2018 1080p BluRay x264 DTS [MW]

  • Category Movies
  • Type HD
  • Language English
  • Total size 3.6 GB
  • Uploaded By moviezworldz
  • Downloads 14
  • Last checked 40 minutes ago
  • Date uploaded 1 hour ago
  • Seeders 4
  • Leechers 23

The Meg

ActionScience FictionThrillerHorror

A deep sea submersible pilot revisits his past fears in the Mariana Trench, and accidentally unleashes the seventy foot ancestor of the Great White Shark believed to be extinct.

Infohash : 8D8F3D8913DFAAB1CA112EDE844698EB205DBB87





General
Format : Matroska
Format version : Version 4 / Version 2
File size : 3.59 GiB
Duration : 1 h 53 min
Overall bit rate : 4 544 kb/s

Video
ID : 1
Format : AVC
Format/Info : Advanced Video Codec
Format profile : [email protected]
Format settings : CABAC / 4 Ref Frames
Format settings, CABAC : Yes
Format settings, RefFrames : 4 frames
Codec ID : V_MPEG4/ISO/AVC
Duration : 1 h 53 min
Bit rate : 3 785 kb/s
Nominal bit rate : 4 000 kb/s
Width : 1 920 pixels
Height : 800 pixels
Display aspect ratio : 2.40:1
Frame rate mode : Constant
Frame rate : 23.976 (24000/1001) FPS
Color space : YUV
Chroma subsampling : 4:2:0
Bit depth : 8 bits
Scan type : Progressive
Bits/(Pixel*Frame) : 0.103
Stream size : 2.99 GiB (83%)
Writing library : x264 core 155 r2901 7d0ff22
Default : Yes
Forced : No

Audio
ID : 2
Format : DTS
Format/Info : Digital Theater Systems
Codec ID : A_DTS
Duration : 1 h 53 min
Bit rate mode : Constant
Bit rate : 756 kb/s
Channel(s) : 6 channels
Channel positions : Front: L C R, Side: L R, LFE
Sampling rate : 48.0 kHz
Frame rate : 93.750 FPS (512 SPF)
Bit depth : 16 bits
Compression mode : Lossy
Stream size : 612 MiB (17%)
Language : English
Default : Yes
Forced : No

Text #1
ID : 3
Format : UTF-8
Codec ID : S_TEXT/UTF8
Codec ID/Info : UTF-8 Plain Text
Duration : 1 h 41 min
Bit rate : 60 b/s
Count of elements : 1269
Stream size : 44.6 KiB (0%)
Language : English
Default : Yes
Forced : No

Text #2
ID : 4
Format : UTF-8
Codec ID : S_TEXT/UTF8
Codec ID/Info : UTF-8 Plain Text
Duration : 1 h 41 min
Bit rate : 71 b/s
Count of elements : 1269
Stream size : 53.3 KiB (0%)
Language : English
Default : No
Forced : No

Menu
00:00:00.000 : en:Chapter 1
00:08:48.569 : en:Chapter 2
00:18:13.884 : en:Chapter 3
00:27:09.878 : en:Chapter 4
00:39:30.117 : en:Chapter 5
00:49:10.906 : en:Chapter 6
00:58:00.768 : en:Chapter 7
01:08:22.640 : en:Chapter 8
01:19:45.405 : en:Chapter 9
01:30:03.439 : en:Chapter 10
01:42:40.362 : en:Chapter 11


Click To Enlarge Image







Files:

The Meg 2018 1080p BluRay x264 DTS [MW]
  • The Meg 2018 1080p BluRay x264 DTS [MW].mkv (3.6 GB)

There are currently no comments. Feel free to leave one :)

Code:

  • udp://tracker.coppersurfer.tk:6969/announce
  • udp://tracker.pirateparty.gr:6969/announce
  • udp://tracker.coppersurfer.tk:6969/announce
  • udp://tracker.tiny-vps.com:6969/announce
  • udp://9.rarbg.me:2740/announce
  • udp://9.rarbg.to:2790/announce
  • udp://public.popcorn-tracker.org:6969/announce
  • udp://tracker.vanitycore.co:6969/announce
  • udp://tracker.opentrackr.org:1337/announce
  • udp://open.stealth.si:80/announce
SitemapЯндекс.Карты — поиск мест и навигатор | Nintendo Switch Spielekonsole Grau - Neu | PRESTO Scheinwerfer-Aufbereitungs-Set Reparatur Politur 365171 Legend of Tarzan (2016) | The Originals 8.2 | 46/?? Tập Thuyết Minh Đấu Ph Thương Khung Fights Break Sphere 2018