The First Purge 2018 720p BluRay x264 Dual ORG Hindi PGS English ...

  • Category Movies
  • Type Dubs/Dual Audio
  • Language Hindi
  • Total size 905.4 MB
  • Uploaded By abuhamza420
  • Downloads 256
  • Last checked 1 hour ago
  • Date uploaded 1 hour ago
  • Seeders 2
  • Leechers 2

The First Purge

ActionHorrorScience FictionThriller

To push the crime rate below one percent for the rest of the year, the New Founding Fathers of America test a sociological theory that vents aggression for one night in one isolated community. But when the violence of oppressors meets the rage of the others, the contagion will explode from the trial-city borders and spread across the nation.

Infohash : 8F4C02B08F8CCDC346763C6D9580D3AD21AAC6C0







The First Purge 2018 720p BluRay x264 Dual ORG Hindi PGS English Subtitle English Audio - MoviesMB


MoviesMB.Com


Downloadhub.Icu


Buy PowerFull VPS And RDP From RDPArena.com

Use Coupon EXTRADESI get 30% Discount on All RDP and VPS Plans






Sample


Video
ID : 1
Format : AVC
Format/Info : Advanced Video Codec
Format profile : [email protected]
Format settings : CABAC / 4 Ref Frames
Format settings, CABAC : Yes
Format settings, RefFrames : 4 frames
Codec ID : V_MPEG4/ISO/AVC
Duration : 1 h 37 min
Bit rate : 1 050 kb/s
Width : 1 280 pixels
Height : 534 pixels
Display aspect ratio : 2.40:1
Original display aspect ratio : 2.40:1
Frame rate mode : Constant
Frame rate : 23.976 (24000/1001) FPS
Color space : YUV
Chroma subsampling : 4:2:0
Bit depth : 8 bits
Scan type : Progressive
Bits/(Pixel*Frame) : 0.064
Stream size : 731 MiB (82%)
Language : English
Default : Yes
Forced : No

Audio
ID : 2
Format : AAC
Format/Info : Advanced Audio Codec
Format profile : LC
Codec ID : A_AAC-2
Duration : 1 h 37 min
Bit rate : 148 kb/s
Channel(s) : 2 channels
Channel positions : Front: L R
Sampling rate : 48.0 kHz
Frame rate : 46.875 FPS (1024 SPF)
Compression mode : Lossy
Delay relative to video : -43 ms
Stream size : 103 MiB (12%)
Language : English
Default : Yes
Forced : No

Text #1
ID : 3
Format : PGS
Codec ID : S_HDMV/PGS
Codec ID/Info : Picture based subtitle format used on BDs/HD-DVDs
Duration : 1 h 36 min
Bit rate : 28.2 kb/s
Count of elements : 2482
Stream size : 19.4 MiB (2%)
Language : Hindi
Default : Yes
Forced : No

Text #2
ID : 4
Format : PGS
Codec ID : S_HDMV/PGS
Codec ID/Info : Picture based subtitle format used on BDs/HD-DVDs
Duration : 1 h 33 min
Bit rate : 47.3 kb/s
Count of elements : 2994
Stream size : 31.5 MiB (4%)
Language : English
Default : No
Forced : No




The First Purge 2018 720p BluRay x264 Dual ORG Hindi PGS English Subtitle English Audio - MoviesMB










Files:

The First Purge 2018 720p BluRay x264 Dual ORG Hindi PGS English Subtitle English Audio - MoviesMB
  • The First Purge 2018 720p BluRay x264 Dual ORG Hindi PGS English Subtitle English Audio - MoviesMB.mkv (886.6 MB)
  • Sample - The First Purge 2018 720p BluRay x264 Dual ORG Hindi PGS English Subtitle English Audio - MoviesMB (1).mkv (18.8 MB)
  • Buy RDP - RDPArena.com.url (0.1 KB)
  • Downloadhub.icu Free 300MB Movies Download.url (0.1 KB)
  • Download Latest Movies From MoviesMb.Com.url (0.1 KB)

There are currently no comments. Feel free to leave one :)

Code:

  • UDP://TRACKER.LEECHERS-PARADISE.ORG:6969/ANNOUNCE
  • UDP://TRACKER.COPPERSURFER.TK:6969/ANNOUNCE
  • UDP://TRACKER.OPENTRACKR.ORG:1337/ANNOUNCE
  • udp://9.rarbg.to:2710/announce
  • UDP://EDDIE4.NL:6969/ANNOUNCE
  • udp://inferno.demonoid.pw:3391/announce
SitemapGaming 5 classic games on Bing you can play nowRead more | Ostsee Wellness | DVD Kshanam (2016) Baixar XAPK | Hakata Tonkotsu Ramens | Avira Antivirus APK Modded