Shonar Pahar (2018) Bengali 720p HDRip x264 AAC 1.2GB - MovCr

  • Category Movies
  • Type HD
  • Language Bengali/Bangla
  • Total size 1.2 GB
  • Uploaded By ictv
  • Downloads 33
  • Last checked 9 minutes ago
  • Date uploaded 10 hours ago
  • Seeders 16
  • Leechers 9

Shonar Pahar

Drama

Sonar Pahar is about Upama, who is in her 70s, doesn't share a healthy bond with her only son Soumya. Soumya's childhood friend Rajdeep along with his seven-year-old son Bittu happens to visit Upama. As days pass by, Upama and Bittu get very close to each other and further, the plot explores the bond between children and the elder ones whom they are close to. The film also highlights the complexities that are often seen in families due to the generation gap.

Infohash : C4AD1921E4E43AFF3D4E619005CF0E0CDC1C6FD3

www.movcr.cc


Shonar Pahar (2018) Bengali 720p HDRip x264 AAC 1.2GB - MovCr



http://www.imdb.com/title/tt8347882/




General
Unique ID : 304076133633475845725413003937766944184 (0xE4C2EEE08C1ED9D5FF0A21FC30C3ADB8)
Complete name : www.MovCr.cc - Shonar Pahar (2018) Bengali 720p HDRip x264 AAC 1.2GB - MovCr.mkv
Format : Matroska
Format version : Version 4 / Version 2
File size : 1.18 GiB
Duration : 2 h 11 min
Overall bit rate : 1 281 kb/s
Movie name : www.MovCr.cc
Encoded date : UTC 2018-11-09 19:02:56
Writing application : mkvmerge v26.0.0 ('In The Game') 64-bit
Writing library : libebml v1.3.6 + libmatroska v1.4.9

Video
ID : 1
Format : AVC
Format/Info : Advanced Video Codec
Format profile : [email protected]
Format settings : 2 Ref Frames
Format settings, CABAC : No
Format settings, RefFrames : 2 frames
Format settings, GOP : M=1, N=25
Codec ID : V_MPEG4/ISO/AVC
Duration : 2 h 11 min
Bit rate : 1 182 kb/s
Width : 1 280 pixels
Height : 544 pixels
Display aspect ratio : 2.35:1
Frame rate mode : Constant
Frame rate : 25.000 FPS
Color space : YUV
Chroma subsampling : 4:2:0
Bit depth : 8 bits
Scan type : Progressive
Bits/(Pixel*Frame) : 0.068
Stream size : 1.08 GiB (92%)
Title : www.MovCr.cc
Default : Yes
Forced : No

Audio
ID : 2
Format : AAC
Format/Info : Advanced Audio Codec
Format profile : LC
Codec ID : A_AAC-2
Duration : 2 h 11 min
Bit rate : 96.0 kb/s
Channel(s) : 2 channels
Channel positions : Front: L R
Sampling rate : 48.0 kHz
Frame rate : 46.875 FPS (1024 SPF)
Compression mode : Lossy
Stream size : 90.7 MiB (8%)
Title : www.MovCr.cc
Language : Bengali
Default : Yes
Forced : No









Files:

  • www.MovCr.cc - Shonar Pahar (2018) Bengali 720p HDRip x264 AAC 1.2GB - MovCr.mkv (1.2 GB)

There are currently no comments. Feel free to leave one :)

Code:

  • udp://tracker.coppersurfer.tk:6969/announce
  • udp://tracker.opentrackr.org:1337/announce
  • udp://tracker.leechers-paradise.org:6969/announce
  • udp://9.rarbg.to:2800/announce
  • udp://9.rarbg.to:2800/announce
  • udp://eddie4.nl:6969/announce
  • udp://9.rarbg.to:2800/announce
  • udp://9.rarbg.to:2800/announce
  • udp://tracker.doko.moe:6969/announce
  • udp://tracker.doko.moe:6969/announce
  • udp://thetracker.org:80/announce
  • udp://thetracker.org:80/announce
  • udp://bt.xxx-tracker.com:2710/announce
  • udp://bt.xxx-tracker.com:2710/announce
  • udp://tracker.vanitycore.co:6969/announce
  • udp://tracker.vanitycore.co:6969/announce
  • udp://tracker.tiny-vps.com:6969/announce
  • udp://tracker.leechers-paradise.org:6969/announce
  • udp://tracker.tiny-vps.com:6969/announce
  • udp://tracker.opentrackr.org:1337/announce
  • udp://tracker.coppersurfer.tk:6969/announce
  • udp://open.stealth.si:80/announce
  • udp://tracker.leechers-paradise.org:6969/announce
  • udp://inferno.demonoid.pw:3418/announce
  • udp://tracker.opentrackr.org:1337/announce
  • udp://retracker.lanta-net.ru:2710/announce
  • udp://peerfect.org:6969/announce
  • udp://tracker.coppersurfer.tk:6969/announce
  • udp://tracker.swateam.org.uk:2710/announce
  • udp://open.stealth.si:80/announce
  • udp://inferno.demonoid.pw:3418/announce
  • udp://retracker.lanta-net.ru:2710/announce
  • udp://peerfect.org:6969/announce
  • udp://tracker.swateam.org.uk:2710/announce
SitemapAggressive Retsuko Episode 99 | Reproducir | Reckless Serie Tv U2 - I'll Go Crazy If I Don't Go Crazy Tonight | تحميل APK | Remote Desktop Manager Enterprise 14 0 2 0 + Keygen [CracksMind]