Ride Along 2 (2016) + Extras (1080p BluRay x265 HEVC 10bit AAC 5....

  • Category Movies
  • Type HEVC/x265
  • Language English
  • Total size 6.3 GB
  • Uploaded By QxR
  • Downloads 244
  • Last checked 42 minutes ago
  • Date uploaded 1 day ago
  • Seeders 26
  • Leechers 53

Ride Along 2

ComedyAction

As his wedding day approaches, Ben heads to Miami with his soon-to-be brother-in-law James to bring down a drug dealer who's supplying the dealers of Atlanta with product.

Infohash : 530B0E1223E0D3A0D7DE3120085A5F9D5061FBBA



http://www.imdb.com/title/tt2869728/





Media Information

Code:

General
Format : Matroska
Format version : Version 4 / Version 2
File size : 3.90 GiB
Duration : 1 h 41 min
Overall bit rate : 5 499 kb/s
Movie name : Ride Along 2 (2016)
Encoded date : UTC 2018-12-02 14:26:55
Writing application : mkvmerge v28.2.0 ('The Awakening') 64-bit
Writing library : libebml v1.3.6 + libmatroska v1.4.9

Video
ID : 1
Format : HEVC
Format/Info : High Efficiency Video Coding
Format profile : Main [email protected]@Main
Codec ID : V_MPEGH/ISO/HEVC
Duration : 1 h 41 min
Bit rate : 4 551 kb/s
Width : 1 920 pixels
Height : 800 pixels
Display aspect ratio : 2.40:1
Frame rate mode : Constant
Frame rate : 23.976 (24000/1001) FPS
Color space : YUV
Chroma subsampling : 4:2:0
Bit depth : 10 bits
Bits/(Pixel*Frame) : 0.124
Stream size : 3.23 GiB (83%)
Writing library : x265 2.9+8-27d8424c799d:[Windows][GCC 8.2.0][64 bit] 10bit
Encoding settings : cpuid=1111039 / frame-threads=3 / numa-pools=12 / wpp / no-pmode / no-pme / no-psnr / no-ssim / log-level=2 / input-csp=1 / input-res=1920x800 / interlace=0 / total-frames=146016 / level-idc=0 / high-tier=1 / uhd-bd=0 / ref=4 / no-allow-non-conformance / no-repeat-headers / annexb / no-aud / no-hrd / info / hash=0 / no-temporal-layers / open-gop / min-keyint=23 / keyint=250 / gop-lookahead=0 / bframes=8 / b-adapt=2 / b-pyramid / bframe-bias=0 / rc-lookahead=80 / lookahead-slices=4 / scenecut=40 / radl=0 / no-intra-refresh / ctu=64 / min-cu-size=8 / no-rect / no-amp / max-tu-size=32 / tu-inter-depth=1 / tu-intra-depth=1 / limit-tu=0 / rdoq-level=2 / dynamic-rd=0.00 / no-ssim-rd / signhide / no-tskip / nr-intra=0 / nr-inter=0 / no-constrained-intra / no-strong-intra-smoothing / max-merge=3 / limit-refs=3 / limit-modes / me=3 / subme=5 / merange=57 / temporal-mvp / weightp / weightb / no-analyze-src-pics / deblock=-1:-1 / no-sao / no-sao-non-deblock / rd=4 / no-early-skip / rskip / no-fast-intra / no-tskip-fast / no-cu-lossless / no-b-intra / no-splitrd-skip / rdpenalty=0 / psy-rd=2.00 / psy-rdoq=2.00 / no-rd-refine / no-lossless / cbqpoffs=0 / crqpoffs=0 / rc=abr / bitrate=4550 / qcomp=0.60 / qpstep=4 / stats-write=0 / stats-read=2 / cplxblur=20.0 / qblur=0.5 / ipratio=1.40 / pbratio=1.30 / aq-mode=3 / aq-strength=1.00 / cutree / zone-count=0 / no-strict-cbr / qg-size=32 / no-rc-grain / qpmax=69 / qpmin=0 / no-const-vbv / sar=0 / overscan=0 / videoformat=5 / range=0 / colorprim=2 / transfer=2 / colormatrix=2 / chromaloc=0 / display-window=0 / max-cll=0,0 / min-luma=0 / max-luma=1023 / log2-max-poc-lsb=8 / vui-timing-info / vui-hrd-info / slices=1 / no-opt-qp-pps / no-opt-ref-list-length-pps / no-multi-pass-opt-rps / scenecut-bias=0.00 / no-opt-cu-delta-qp / no-aq-motion / no-hdr / no-hdr-opt / no-dhdr10-opt / no-idr-recovery-sei / analysis-reuse-level=5 / scale-factor=0 / refine-intra=0 / refine-inter=0 / refine-mv=0 / no-limit-sao / ctu-info=0 / no-lowpass-dct / refine-mv-type=0 / copy-pic=1 / max-ausize-factor=1.0 / no-dynamic-refine / no-single-sei
Default : Yes
Forced : No

Audio #1
ID : 2
Format : AAC
Format/Info : Advanced Audio Codec
Format profile : LC
Codec ID : A_AAC
Duration : 1 h 41 min
Bit rate : 428 kb/s
Channel(s) : 6 channels
Channel positions : Front: L C R, Side: L R, LFE
Sampling rate : 48.0 kHz
Frame rate : 46.875 FPS (1024 spf)
Compression mode : Lossy
Delay relative to video : 20 ms
Stream size : 311 MiB (8%)
Language : English
Default : No
Forced : No

Audio #2
ID : 3
Format : AAC
Format/Info : Advanced Audio Codec
Format profile : HE-AAC / LC
Codec ID : A_AAC
Duration : 1 h 41 min
Bit rate : 192 kb/s
Channel(s) : 6 channels
Channel positions : Front: L C R, Side: L R, LFE
Sampling rate : 48.0 kHz / 24.0 kHz
Frame rate : 23.438 FPS (1024 spf)
Compression mode : Lossy
Delay relative to video : 40 ms
Stream size : 139 MiB (3%)
Language : French
Default : No
Forced : No

Audio #3
ID : 4
Format : AAC
Format/Info : Advanced Audio Codec
Format profile : HE-AAC / LC
Codec ID : A_AAC
Duration : 1 h 41 min
Bit rate : 192 kb/s
Channel(s) : 6 channels
Channel positions : Front: L C R, Side: L R, LFE
Sampling rate : 48.0 kHz / 24.0 kHz
Frame rate : 23.438 FPS (1024 spf)
Compression mode : Lossy
Delay relative to video : 40 ms
Stream size : 139 MiB (3%)
Language : Spanish
Default : No
Forced : No

Audio #4
ID : 5
Format : AAC
Format/Info : Advanced Audio Codec
Format profile : HE-AAC / LC
Codec ID : A_AAC
Duration : 1 h 41 min
Bit rate : 80.0 kb/s
Channel(s) : 2 channels
Channel positions : Front: L R
Sampling rate : 48.0 kHz / 24.0 kHz
Frame rate : 23.438 FPS (1024 spf)
Compression mode : Lossy
Delay relative to video : 40 ms
Stream size : 58.1 MiB (1%)
Title : Commentary with Tim Story
Language : English
Default : No
Forced : No

Subtitle #1
ID : 6
Format : PGS
Muxing mode : zlib
Codec ID : S_HDMV/PGS
Codec ID/Info : Picture based subtitle format used on BDs/HD-DVDs
Duration : 1 h 36 min
Bit rate : 69.1 kb/s
Count of elements : 4622
Stream size : 47.5 MiB (1%)
Language : English
Default : No
Forced : No

Subtitle #2
ID : 7
Format : PGS
Muxing mode : zlib
Codec ID : S_HDMV/PGS
Codec ID/Info : Picture based subtitle format used on BDs/HD-DVDs
Duration : 1 h 40 min
Bit rate : 51.5 kb/s
Count of elements : 4057
Stream size : 37.1 MiB (1%)
Language : French
Default : No
Forced : No

Subtitle #3
ID : 8
Format : PGS
Muxing mode : zlib
Codec ID : S_HDMV/PGS
Codec ID/Info : Picture based subtitle format used on BDs/HD-DVDs
Duration : 1 h 40 min
Bit rate : 54.6 kb/s
Count of elements : 4186
Stream size : 39.3 MiB (1%)
Language : Spanish
Default : No
Forced : No

Menu
00:00:00.000 : en:Chapter 01
00:03:29.375 : en:Chapter 02
00:10:26.709 : en:Chapter 03
00:14:00.089 : en:Chapter 04
00:17:21.040 : en:Chapter 05
00:22:33.268 : en:Chapter 06
00:27:48.875 : en:Chapter 07
00:34:33.529 : en:Chapter 08
00:39:25.905 : en:Chapter 09
00:42:26.001 : en:Chapter 10
00:46:06.013 : en:Chapter 11
00:50:51.173 : en:Chapter 12
00:56:40.772 : en:Chapter 13
01:00:04.726 : en:Chapter 14
01:06:57.680 : en:Chapter 15
01:13:09.051 : en:Chapter 16
01:19:35.395 : en:Chapter 17
01:23:06.731 : en:Chapter 18
01:31:20.141 : en:Chapter 19
01:36:58.813 : en:Chapter 20

Source Information

Code:

Release:
Untouched Bluray


Note From QxR:

Quote:

Whilst we are happy for our releases to be re-posted on a platform we aren't on, please do so in an 'as-is' format. We ask that you do not create a new torrent, include all descriptions you see above including the QxR logo, tags, notes and screenshots. If you'd like to become a permanent poster on a website we don't post to, feel free to get in contact with a QxR member.


Files:

Ride Along 2 (2016) + Extras (1080p BluRay x265 HEVC 10bit AAC 5.1 RZeroX) Featurettes
  • Behind the Scenes of Ride Along With Us.mkv (27.0 MB)
  • Cori's Wedding Commercial.mkv (36.6 MB)
  • Deleted Scenes.mkv (140.6 MB)
  • Gag Reel.mkv (78.9 MB)
  • Inside Black Hammer Vision - Featurette.mkv (99.4 MB)
  • Kevin & Cube Brothers-in-Law - Featurette.mkv (225.6 MB)
  • Ride Along With Us - Featurette.mkv (127.7 MB)
  • Ride Along with Kevin Hart - Featurette.mkv (217.1 MB)
  • The New Recruits - Featurette.mkv (232.9 MB)
  • The Ride Along Round Table - Featurette.mkv (436.1 MB)
  • The Ride Diaries - Featurettes.mkv (885.4 MB)
  • Ride Along 2 (2016) (1080p BluRay x265 RZeroX).mkv (3.9 GB)

Comments

Code:

  • udp://tracker.opentrackr.org:1337/announce
  • udp://tracker.coppersurfer.tk:6969/announce
  • udp://tracker.torrent.eu.org:451/announce
SitemapDave Davis | Haven Season 2 Episode 4 | Carole Samaha 2019 Thám Tử Lừng Danh Conan chap 901 | Veteranos al Ataque | Kopierpapier Druckerpapier 80g DIN A4 500 2500 5000 10000 Blatt weiß Toner Fax