Dil Juunglee (2018) Hindi 720p WEB-HD x264 AC3-Sun George

  • Category Movies
  • Type Bollywood
  • Language Hindi
  • Total size 1.5 GB
  • Uploaded By Sungeorge
  • Downloads 3
  • Last checked 3 minutes ago
  • Date uploaded 3 minutes ago
  • Seeders 0
  • Leechers 0

Infohash : DAB44EEADF40D73273561EFBC4372708DC1FBC0C

Dil Juunglee (2018) Hindi 720p WEB-HD x264 AC3-Sun George



http://www.imdb.com/title/tt6071752/








===================================================================


General
Format : Matroska
Format version : Version 4 / Version 2
File size : 1.49 GiB
Duration : 1 h 56 min
Overall bit rate : 1 823 kb/s
Movie name : Dil Juunglee (2018) Hindi 720p WEB-HD x264 AC3-Sun George


===================================================================


Video
ID : 1
Format : AVC
Format/Info : Advanced Video Codec
Format profile : [email protected]
Format settings : CABAC / 5 Ref Frames
Format settings, CABAC : Yes
Format settings, RefFrames : 5 frames
Codec ID : V_MPEG4/ISO/AVC
Duration : 1 h 56 min
Bit rate : 1 650 kb/s
Width : 1 280 pixels
Height : 720 pixels
Display aspect ratio : 16:9
Frame rate mode : Constant
Frame rate : 25.000 FPS
Color space : YUV
Chroma subsampling : 4:2:0
Bit depth : 8 bits
Scan type : Progressive
Bits/(Pixel*Frame) : 0.072
Stream size : 1.33 GiB (90%)
Title : Sun George


===================================================================


Audio
ID : 2
Format : AC-3
Format/Info : Audio Coding 3
Codec ID : A_AC3
Duration : 1 h 54 min
Bit rate mode : Constant
Bit rate : 192 kb/s
Channel(s) : 2 channels
Channel positions : Front: L R
Sampling rate : 48.0 kHz
Frame rate : 31.250 FPS (1536 SPF)
Bit depth : 16 bits
Compression mode : Lossy
Stream size : 157 MiB (10%)
Title : Sun George
Language : Hindi
Service kind : Complete Main
Default : Yes
Forced : No













Files:

Dil Juunglee (2018) Hindi 720p WEB-HD x264 AC3-Sun George
  • Dil Juunglee (2018) Hindi 720p WEB-HD x264 AC3-Sun George.mkv (1.5 GB)
  • Sample Dil Juunglee (2018) Hindi 720p WEB-HD x264 AC3-Sun George.mkv (44.1 MB)
  • INFO.NFO (0.1 KB)

There are currently no comments. Feel free to leave one :)

Code:

  • udp://tracker.pirateparty.gr:6969/announce
  • udp://tracker.tiny-vps.com:6969/announce
  • udp://open.stealth.si:80/announce
  • udp://tracker.opentrackr.org:1337/announce
  • udp://tracker.internetwarriors.net:1337/announce
  • udp://9.rarbg.to:2710/announce
  • udp://tracker1.itzmx.com:8080/announce
  • udp://9.rarbg.me:2740/announce
  • udp://thetracker.org:80/announce
  • udp://tracker.coppersurfer.tk:6969/announce
  • http://tracker.fastdownload.xyz:443/announce
  • http://retracker.telecom.by:80/announce
  • udp://open.demonii.si:1337/announce
  • http://seeders-paradise.org:443/announce
  • http://share.camoe.cn:8080/announce
SitemapPhilosophy of Education - 2748 Words | Rare Old natural lapis lazuli stone Snuff Bottle pendant netsuke Art noble gift | Abraham as the Ideal Man of Faith in The Holy Bible BILDERRAHMEN BAROCK GIPS 53,5 x 44,5cm / 37,3 x 27,5 cm 3,3kg | 113 مسلسلات تركية مسلسل تكسرات الروح الحلقة 2 الثانية مترجمة مشاهدة وتحميل الحلقة الثانيه 2 من مسلسل تكسرات روح مترجمة اونلاين HD المسلسل التركي تكسرات روح الموسم الاول الحلقة 2... | PERSONALISED TEXT PHOTO NAME MUG Christmas Birthday Fathers Mothers Valentines