Garbage UNCENSORED Hot Adult Hindi Movies 720p BluRay x264 5.1 wi...

  • Category XXX
  • Type Video
  • Language Hindi
  • Total size 892.2 MB
  • Uploaded By nehalpuja
  • Downloads 119
  • Last checked 51 minutes ago
  • Date uploaded 3 hours ago
  • Seeders 0
  • Leechers 92

Infohash : D120C4B1BFABEB7349309F552A5339C446BADD8F

18+ Garbage UNCENSORED Hot Adult Hindi Movies 720p BluRay x264 5.1 with Sample ☻rDX☻
===============================================================================================

SCREEN SHOTS:





or

http://iphonehosting.eu/2018/11/b/call/1.html


File size : 883 MiB
Duration : 1 h 49 min
Overall bit rate : 1 130 kb/s
Movie name : 18+ Garbage UNCENSORED Hot Adult Hindi Movies 720p BluRay x264 5.1 ☻rDX☻

Video
ID : 2
Format : AVC
Format/Info : Advanced Video Codec
Format profile : [email protected]
Format settings, CABAC : Yes
Format settings, ReFrames : 3 frames
Codec ID : V_MPEG4/ISO/AVC
Duration : 1 h 49 min
Bit rate : 788 kb/s
Width : 1 280 pixels
Height : 544 pixels
Display aspect ratio : 2.35:1
Frame rate mode : Constant
Frame rate : 25.000 FPS
Color space : YUV
Chroma subsampling : 4:2:0
Bit depth : 8 bits
Scan type : Progressive
Bits/(Pixel*Frame) : 0.045
Stream size : 616 MiB (70%)
Title : ☻rDX☻
Default : Yes
Forced : No
Color range : Limited
Color primaries : BT.709
Transfer characteristics : BT.709
Matrix coefficients : BT.709

Audio
ID : 1
Format : AC-3
Format/Info : Audio Coding 3
Mode extension : CM (complete main)
Format settings, Endianness : Big
Codec ID : A_AC3
Duration : 1 h 49 min
Bit rate mode : Constant
Bit rate : 320 kb/s
Channel(s) : 6 channels
Channel positions : Front: L C R, Side: L R, LFE
Sampling rate : 44.1 kHz
Frame rate : 28.711 FPS (1536 spf)
Bit depth : 16 bits
Compression mode : Lossy
Stream size : 250 MiB (28%)
Title : ☻rDX☻
Default : Yes
Forced : No

http://www.imdb.com/title/tt7981260


Files:

18+ Garbage UNCENSORED Hot Adult Hindi Movies 720p BluRay x264 5.1 with Sample ☻rDX☻
  • Sample ~ 18+ Garbage UNCENSORED Hot Adult Hindi Movies 720p BluRay x264 5.1 ☻rDX☻.mkv (8.9 MB)
  • 18+ Garbage UNCENSORED Hot Adult Hindi Movies 720p BluRay x264 5.1 ☻rDX☻.mkv (883.3 MB)

There are currently no comments. Feel free to leave one :)

Code:

  • udp://tracker.coppersurfer.tk:6969/announce
  • udp://tracker.leechers-paradise.org:6969/announce
  • udp://tracker.pirateparty.gr:6969/announce
  • udp://eddie4.nl:6969/announce
  • udp://tracker.zer0day.to:1337/announce
  • udp://9.rarbg.me:2710/announce
  • udp://9.rarbg.to:2710/announce
  • udp://public.popcorn-tracker.org:6969/announce
  • udp://p4p.arenabg.ch:1337/announce
  • udp://tracker.vanitycore.co:6969/announce
  • udp://ipv4.tracker.harry.lu:80/announce
  • udp://tracker.opentrackr.org:1337/announce
  • udp://p4p.arenabg.com:1337/announce
  • udp://shadowshq.yi.org:6969/announce
SitemapFrench Polynesia | film complet | The Complete Chess Course - From Beginning to Winning Chess - 21st Century Edition (2016).epub Gooner Édit. de vidéos histoire 2.5.00.14 | Nyo4.0 + Tachosoft V23.1 + Licznik4.8A + Immo Killer 1.10 4 In 1 !! Best Price | Four seasons in havana