Schindler's List (1993) (1080p BluRay 10bit x265 HEVC HDR AAC 5.1...

  • Category Movies
  • Type HEVC/x265
  • Language English
  • Total size 6.7 GB
  • Uploaded By UTRCorp
  • Downloads 31
  • Last checked 1 hour ago
  • Date uploaded 3 hours ago
  • Seeders 17
  • Leechers 24

Schindler's List

DramaHistoryWar

Told from the perspective of businessman Oskar Schindler who saved over a thousand Jewish lives from the Nazis while they worked as slaves in his factory. Schindler’s List is based on a true story, illustrated in black and white and controversially filmed in many original locations.

Infohash : 64E1FA2EE6168DFC337EF8D3081E3DA72F044F6D








Media Information

Media Information


Code:

General
Format                                   : Matroska
Format version                           : Version 4 / Version 2
File size                                : 6.73 GiB
Duration                                 : 3 h 15 min
Overall bit rate                         : 4 936 kb/s
Encoded date                             : UTC 2019-01-09 15:18:35
Writing application                      : mkvmerge v28.0.0 ('Voice In My Head') 64-bit
Writing library                          : libebml v1.3.6 + libmatroska v1.4.9
Writing frontend                         : StaxRip v1.7.0.0

Video
ID                                       : 1
Format                                   : HEVC
Format/Info                              : High Efficiency Video Coding
Format profile                           : Main [email protected]@Main
Codec ID                                 : V_MPEGH/ISO/HEVC
Duration                                 : 3 h 15 min
Bit rate                                 : 4 433 kb/s
Width                                    : 1 920 pixels
Height                                   : 1 040 pixels
Display aspect ratio                     : 1.85:1
Frame rate mode                          : Constant
Frame rate                               : 23.976 (24000/1001) FPS
Color space                              : YUV
Chroma subsampling                       : 4:2:0
Bit depth                                : 10 bits
Bits/(Pixel*Frame)                       : 0.093
Stream size                              : 6.04 GiB (90%)
Writing library                          : x265 3.0_RC+2-8f1c154aae5e:[Windows][MSVC 1900][64 bit] 10bit
Encoding settings                        : cpuid=1111039 / frame-threads=3 / numa-pools=8 / wpp / no-pmode / no-pme / no-psnr / no-ssim / log-level=2 / input-csp=1 / input-res=1920x1040 / interlace=0 / total-frames=280705 / level-idc=0 / high-tier=1 / uhd-bd=0 / ref=5 / no-allow-non-conformance / repeat-headers / annexb / no-aud / no-hrd / info / hash=0 / no-temporal-layers / open-gop / min-keyint=23 / keyint=250 / gop-lookahead=0 / bframes=8 / b-adapt=2 / b-pyramid / bframe-bias=0 / rc-lookahead=60 / lookahead-slices=0 / scenecut=40 / radl=0 / no-splice / no-intra-refresh / ctu=64 / min-cu-size=8 / no-rect / no-amp / max-tu-size=32 / tu-inter-depth=3 / tu-intra-depth=3 / limit-tu=4 / rdoq-level=2 / dynamic-rd=0.00 / no-ssim-rd / signhide / no-tskip / nr-intra=0 / nr-inter=0 / no-constrained-intra / no-strong-intra-smoothing / max-merge=4 / limit-refs=1 / no-limit-modes / me=3 / subme=4 / merange=57 / temporal-mvp / weightp / weightb / no-analyze-src-pics / deblock=-3:-3 / sao / no-sao-non-deblock / rd=6 / no-early-skip / rskip / no-fast-intra / no-tskip-fast / no-cu-lossless / b-intra / no-splitrd-skip / rdpenalty=0 / psy-rd=1.00 / psy-rdoq=1.00 / no-rd-refine / no-lossless / cbqpoffs=0 / crqpoffs=0 / rc=crf / crf=20.0 / qcomp=0.60 / qpstep=4 / stats-write=0 / stats-read=0 / ipratio=1.40 / pbratio=1.30 / aq-mode=2 / aq-strength=0.80 / cutree / zone-count=0 / no-strict-cbr / qg-size=32 / no-rc-grain / qpmax=69 / qpmin=0 / no-const-vbv / sar=0 / overscan=0 / videoformat=5 / range=0 / colorprim=9 / transfer=16 / colormatrix=9 / chromaloc=0 / display-window=0 / master-display=G(13250,34500)B(7500,3000)R(34000,16000)WP(15635,16450)L(10000000,10) / max-cll=0,0 / min-luma=0 / max-luma=1023 / log2-max-poc-lsb=8 / vui-timing-info / vui-hrd-info / slices=1 / no-opt-qp-pps / no-opt-ref-list-length-pps / no-multi-pass-opt-rps / scenecut-bias=0.05 / no-opt-cu-delta-qp / no-aq-motion / hdr / hdr-opt / no-dhdr10-opt / no-idr-recovery-sei / analysis-reuse-level=5 / scale-factor=0 / refine-intra=0 / refine-inter=0 / refine-mv=0 / refine-ctu-distortion=0 / no-limit-sao / ctu-info=0 / no-lowpass-dct / refine-analysis-type=0 / copy-pic=1 / max-ausize-factor=1.0 / no-dynamic-refine / no-single-sei / no-hevc-aq / qp-adaptation-range=1.00
Language                                 : English
Default                                  : Yes
Forced                                   : No
Color range                              : Limited
Color primaries                          : BT.2020
Transfer characteristics                 : SMPTE ST 2084
Matrix coefficients                      : BT.2020 non-constant
Mastering display color primaries        : R: x=0.680000 y=0.320000, G: x=0.265000 y=0.690000, B: x=0.150000 y=0.060000, White point: x=0.312700 y=0.329000
Mastering display luminance              : min: 0.0010 cd/m2, max: 1000.0000 cd/m2

Audio
ID                                       : 2
Format                                   : AAC
Format/Info                              : Advanced Audio Codec
Format profile                           : LC
Codec ID                                 : A_AAC
Duration                                 : 3 h 15 min
Bit rate                                 : 489 kb/s
Channel(s)                               : 6 channels
Channel positions                        : Front: L C R, Side: L R, LFE
Sampling rate                            : 48.0 kHz
Frame rate                               : 46.875 FPS (1024 spf)
Compression mode                         : Lossy
Delay relative to video                  : 20 ms
Stream size                              : 683 MiB (10%)
Title                                    : 5.1 Surround (AAC)
Language                                 : English
Default                                  : Yes
Forced                                   : No

Subtitle #1
ID                                       : 3
Format                                   : UTF-8
Codec ID                                 : S_TEXT/UTF8
Codec ID/Info                            : UTF-8 Plain Text
Duration                                 : 3 h 4 min
Bit rate                                 : 53 b/s
Count of elements                        : 2176
Stream size                              : 72.1 KiB (0%)
Title                                    : English
Language                                 : English
Default                                  : Yes
Forced                                   : No

Subtitle #2
ID                                       : 4
Format                                   : UTF-8
Codec ID                                 : S_TEXT/UTF8
Codec ID/Info                            : UTF-8 Plain Text
Duration                                 : 3 h 4 min
Bit rate                                 : 58 b/s
Count of elements                        : 2423
Stream size                              : 78.6 KiB (0%)
Title                                    : English (SDH)
Language                                 : English
Default                                  : No
Forced                                   : No

Subtitle #3
ID                                       : 5
Format                                   : PGS
Muxing mode                              : zlib
Codec ID                                 : S_HDMV/PGS
Codec ID/Info                            : Picture based subtitle format used on BDs/HD-DVDs
Duration                                 : 3 h 4 min
Bit rate                                 : 38.6 kb/s
Count of elements                        : 4850
Stream size                              : 50.9 MiB (1%)
Title                                    : English (BluRay)
Language                                 : English
Default                                  : No
Forced                                   : No

Menu
00:00:00.000                             : :Chapter 01
00:03:23.161                             : :Chapter 02
00:10:12.153                             : :Chapter 03
00:14:51.307                             : :Chapter 04
00:17:28.714                             : :Chapter 05
00:21:42.384                             : :Chapter 06
00:23:48.010                             : :Chapter 07
00:30:37.669                             : :Chapter 08
00:34:23.728                             : :Chapter 09
00:41:43.751                             : :Chapter 10
00:44:16.737                             : :Chapter 11
00:50:55.761                             : :Chapter 12
00:55:09.431                             : :Chapter 13
00:56:44.860                             : :Chapter 14
01:13:44.754                             : :Chapter 15
01:17:05.704                             : :Chapter 16
01:26:02.115                             : :Chapter 17
01:29:26.319                             : :Chapter 18
01:32:01.182                             : :Chapter 19
01:38:36.869                             : :Chapter 20
01:43:19.777                             : :Chapter 21
01:49:36.612                             : :Chapter 22
01:55:45.981                             : :Chapter 23
01:58:42.824                             : :Chapter 24
02:02:59.789                             : :Chapter 25
02:06:49.310                             : :Chapter 26
02:10:11.637                             : :Chapter 27
02:13:44.725                             : :Chapter 28
02:18:21.376                             : :Chapter 29
02:26:46.506                             : :Chapter 30
02:34:15.621                             : :Chapter 31
02:38:48.018                             : :Chapter 32
02:41:15.416                             : :Chapter 33
02:46:21.763                             : :Chapter 34
02:48:12.332                             : :Chapter 35
02:50:23.171                             : :Chapter 36
02:55:28.393                             : :Chapter 37
03:01:51.359                             : :Chapter 38
03:05:04.552                             : :Chapter 39
03:08:50.444                             : :Chapter 40



Source Information


Code:

Release:
Unknown Source/NO-GROUP



We have no issue with individuals posting or re-uploading our torrents on a platform we aren't on. However, if this is something you'd like to do, please do so in a 'as-is' format. We ask that you do not create a new torrent, include all descriptions you see above including the UTR logo, tags, notes and screenshots. If you'd like to become a permanent poster on a website we don't post to, feel free to get in contact with a UniTeam member.

Files:

Schindler's List (1993) (1080p BluRay 10bit x265 HEVC HDR AAC 5.1 FK99) [UTR]
  • Schindler's.List.(1993).1080p.BluRay.10-bit.x265.AAC.5.1 FK99[UTR].mkv (6.7 GB)

There are currently no comments. Feel free to leave one :)

Code:

  • udp://9.rarbg.com:2710/announce
  • udp://tracker.opentrackr.org:1337/announce
  • udp://tracker.torrent.eu.org:451/announce
  • udp://tracker.leechers-paradise.org:6969/announce
  • udp://tracker.coppersurfer.tk:6969/announce
SitemapThe [email protected] SideM: Wak | Transfer Stampa Maglia T-Shirt Cotone Bianco Nero Looney Tunes Will Coyote Willy | Dorei-ku The Animation Vincent B. Gorce | Justice League | Assistir O Mundo Sombrio de Sabrina Dublado Online